Loading...
Error

Русалка / Mei ren yu / Mermaid (Стивен Чоу) [2016 г., фантастика, фэнтези, драма, мелодрама, HDRip] VO

Статистика раздачи
Размер:  1,46 GB   |    Зарегистрирован:  6 месяцев   |    Скачан:  11 раз

Полного источника не было: 2 месяца 24 дня

Сидов:  0  |  0 KB/s  ]   Личеров:  0  |  0 KB/s  ]

* - сиды/пиры с внешних источников

   
 
Автор Сообщение

makkol Пол:Муж

27-Май-2016 22:52

Русалка / Mei ren yu / Mermaid


Год выпуска: 2016
Жанр: фантастика, фэнтези, драма, мелодрама
Производство: Китай [Alibaba Pictures Group]
Режиссер: Стивен Чоу
В ролях: Чао Ден, Юнь Линь, Шоу Луо, Юки Чжан, Пьер Бурдо, Кэ Бай, Иван Котик, Ляншун Конг, Кай Ман Тинь, Харк Цуй, Чжан Вэнь, Ифань У, Сялон Бо
Сюжет фильма:
Русалочка по имени Шан отправляется на миссию по соблазнению и убийству Лина Кхуана - промышленника, который загрязняет океаны, убивая в них жизнь.

  • Мировая премьера: 8 февраля 2016


Качество видео: HDRip

Продолжительность: 01:33:45
Формат: AVI
Видео: XviD, 720x304 (2.35:1), 23.976 fps, 2030 kbps
Аудио: русский, любительский одноголосый закадровый (Вячеслав Замез aka zamez), AC3 2.0, 48 kHz, 192 kbps

Код:

Формат                                   : AVI
Формат/Информация                        : Audio Video Interleave
Размер файла                             : 1,46 Гбайт
Продолжительность                        : 1 ч. 33 м.
Общий поток                              : 2231 Кбит/сек
Программа кодирования                    : VirtualDubMod 1.5.10.3 | www.virtualdub-fr.org || (build 2550/release)
Библиотека кодирования                   : VirtualDubMod build 2550/release

Видео
Идентификатор                            : 0
Формат                                   : MPEG-4 Visual
Профиль формата                          : Advanced Simple@L5
Параметр BVOP формата                    : 1
Параметр QPel формата                    : Нет
Параметр GMC формата                     : Без точки перехода
Параметр матрицы формата                 : Выборочная
Идентификатор кодека                     : XVID
Идентификатор кодека/Подсказка           : XviD
Продолжительность                        : 1 ч. 33 м.
Битрейт                                  : 2030 Кбит/сек
Ширина                                   : 720 пикселей
Высота                                   : 304 пикселя
Соотношение сторон                       : 2,35:1
Частота кадров                           : 23,976 (23976/1000) кадра/сек
Цветовое пространство                    : YUV
Субдискретизация насыщенности            : 4:2:0
Битовая глубина                          : 8 бит
Тип развёртки                            : Прогрессивная
Метод сжатия                             : С потерями
Бит/(Пиксели*Кадры)                      : 0.387
Размер потока                            : 1,33 Гбайт (91%)
Библиотека кодирования                   : XviD 73

Аудио
Идентификатор                            : 1
Формат                                   : AC-3
Формат/Информация                        : Audio Coding 3
Расширение режима                        : CM (complete main)
Параметр Endianness формата              : Big
Идентификатор кодека                     : 2000
Продолжительность                        : 1 ч. 33 м.
Вид битрейта                             : Постоянный
Битрейт                                  : 192 Кбит/сек
Каналы                                   : 2 канала
Расположение каналов                     : Front: L R
Частота                                  : 48,0 КГц
Частота кадров                           : 31,250 кадров/сек (1536 spf)
Метод сжатия                             : С потерями
Размер потока                            : 129 Мбайт (9%)
Выравнивание                             : Разделение по промежуткам
Продолжительность промежутка             : 42  мс. (1,00 видеокадр)
Время предзагрузки промежутка            : 500  мс.
picpicpicpicpic
Для увеличения картинки щелкните мышкой по превью

Этот торрент недоступен для скачивания без регистрации, однако доступен по публичной magnet-ссылке (источники с публичных трекеров). Перед использованием ссылки прочтите, пожалуйста Пользовательское соглашение, а также как можно дольше оставайтесь на раздаче! Для того, чтобы скачать сам торрент-файл (который видит больше источников), а также для того, чтобы поблагодарить релизера, вам необходимо зарегистрироваться. Если регистрироваться лень - вы можете также попробовать скачать релиз по нашим партнерским ссылкам ниже.

[underverse.su].t66607.torrent
Трекер: Зарегистрирован   [ 27.05.2016 22:52 ]  

Статус: проверено (by makkol at 29.05.2016 23:38)
Поблагодарили: пока никто не поблагодарил...
Тип торрента: публичный - доступные источники с открытых трекеров: 
Размер: 1,46 GB (занимает 0,33 DVDR, для записи нужно 1 болванка DVDR/RW)
 
 
Похожие темы
Форум Тема Автор Торрент Отв. Посл. сооб.
Зарубежное кино [HDDVDRip / BDRip / WEB-DL / HDTV 1080/720р] Русалка / Mei ren yu / Mermaid (Стивен Чоу) [2016 г., фантастика, фэнтези, драма, мелодрама, BDRip 720p] VO makkol
3 | 0

0 | 554

3

27.05.2016 22:58

Зарубежное кино [HDDVDRip / BDRip / WEB-DL / HDTV 1080/720р] Русалка / Mei ren yu / Mermaid (Стивен Чоу) [2016 г., фантастика, фэнтези, драма, мелодрама, BDRip 1080p] VO makkol
3 | 1

0 | 627

4

27.05.2016 23:04


Яндекс.Метрика powered by Sphinx


В Н И М А Н И Е
Сайт не распространяет и не хранит электронные версии произведений, а лишь бесплатно и без коммерческой выгоды (не требуя взамен платы,
SMS и т.д.) предоставляет доступ к создаваемому пользователями каталогу ссылок на торрент-файлы, которые содержат только списки хеш-сумм.
Убедительная просьба с жалобами обращаться напрямую к пользователю, разместившему торрент файл.

Вверх