Loading...
Error

Шальное ранение / Blunt Force Trauma (Кен Сэнзел) [2015 г., боевик, HDRip] Dub

Статистика раздачи
Размер:  1,37 GB   |    Зарегистрирован:  6 месяцев   |    Скачан:  21 раз
Сидов:  1  |  48 KB/s  ]   Личеров:  0  |  0 KB/s  ]

* - сиды/пиры с внешних источников

   
 
Автор Сообщение

makkol Пол:Муж

27-Май-2016 13:39

Шальное ранение / Blunt Force Trauma


Год выпуска: 2015
Жанр: боевик
Производство: Колумбия [ETA Films]
Режиссер: Кен Сэнзел
В ролях: Райан Квантен, Фрида Пинто, Микки Рурк, Джон Мак, Каролина Гомес, Джейсон Гибсон, Рубен Самора, Стивен Галарсе
Сюжет фильма:
Это история о Джоне и Кольте, друзьях по оружию и любовниках в постели. У них разные жизненные пути, но судьба свела их вместе в смертельных дуэлях, которые являются забавой для жителей ночного города.

  • Мировая премьера: 20 июля 2015


Качество видео: HDRip

Продолжительность: 01:36:37
Формат: AVI
Видео: XviD, 720x400 (16:9), 23.976 fps, 1632 kbps
Аудио: русский, дублированный (официальный звук), AC3 2.0, 48 kHz, 192 kbps

Код:

Format : AVI
Format/Info : Audio Video Interleave
Overall bit rate : 1 835 Kbps
Writing application : VirtualDubMod 1.5.10.3 | (build 2550/release)
Writing library : VirtualDubMod build 2550/release

Video
ID : 0
Format : MPEG-4 Visual
Format profile : Advanced Simple@L5
Format settings, BVOP : 2
Format settings, QPel : No
Format settings, GMC : No warppoints
Format settings, Matrix : Default (MPEG)
Codec ID : XVID
Codec ID/Hint : XviD
Bit rate : 1 632 Kbps
Width : 720 pixels
Height : 400 pixels
Display aspect ratio : 16:9
Frame rate : 23.976 fps
Color space : YUV
Chroma subsampling : 4:2:0
Bit depth : 8 bits
Scan type : Progressive
Compression mode : Lossy
Bits/(Pixel*Frame) : 0.236
Stream size : 12.4 MiB (89%)
Writing library : XviD 1.2.1 (UTC 2008-12-04)

Audio
ID : 1
Format : AC-3
Format/Info : Audio Coding 3
Mode extension : CM (complete main)
Format settings, Endianness : Big
Codec ID : 2000
Bit rate mode : Constant
Bit rate : 192 Kbps
Channel(s) : 2 channels
Channel positions : Front: L R
Sampling rate : 48.0 KHz
Compression mode : Lossy
Stream size : 1.46 MiB (10%)
Alignment : Split accross interleaves
Interleave, duration : 42 ms (1.01 video frame)
Interleave, preload duration : 500 ms
Релиз без рекламы


picpicpicpicpic
Для увеличения картинки щелкните мышкой по превью

Этот торрент недоступен для скачивания без регистрации, однако доступен по публичной magnet-ссылке (источники с публичных трекеров). Перед использованием ссылки прочтите, пожалуйста Пользовательское соглашение, а также как можно дольше оставайтесь на раздаче! Для того, чтобы скачать сам торрент-файл (который видит больше источников), а также для того, чтобы поблагодарить релизера, вам необходимо зарегистрироваться. Если регистрироваться лень - вы можете также попробовать скачать релиз по нашим партнерским ссылкам ниже.

[underverse.su].t66591.torrent
Трекер: Зарегистрирован   [ 27.05.2016 13:39 ]  

Статус: проверено (by Паукан at 27.05.2016 21:12)
Поблагодарили: 2 человека
Тип торрента: публичный - доступные источники с открытых трекеров: 
Размер: 1,37 GB (занимает 0,31 DVDR, для записи нужно 1 болванка DVDR/RW)
 
 
Похожие темы
Форум Тема Автор Торрент Отв. Посл. сооб.
Зарубежное кино [HDDVDRip / BDRip / WEB-DL / HDTV 1080/720р] Шальное ранение / Blunt Force Trauma (Кен Сэнзел) [2015 г., боевик, BDRip 720p] Dub + Original makkol
7 | 2

0 | 584

8

27.05.2016 13:55

Зарубежное кино [HDDVDRip / BDRip / WEB-DL / HDTV 1080/720р] Шальное ранение / Blunt Force Trauma (Кен Сэнзел) [2015 г., боевик, BDRip 1080p] Dub + Original makkol
8 | 0

0 | 620

2

27.05.2016 14:02


Яндекс.Метрика powered by Sphinx


В Н И М А Н И Е
Сайт не распространяет и не хранит электронные версии произведений, а лишь бесплатно и без коммерческой выгоды (не требуя взамен платы,
SMS и т.д.) предоставляет доступ к создаваемому пользователями каталогу ссылок на торрент-файлы, которые содержат только списки хеш-сумм.
Убедительная просьба с жалобами обращаться напрямую к пользователю, разместившему торрент файл.

Вверх