Loading...
Error

Загадки нашей Земли (1-11 серии из 11) [2015 г., документальный, научно-познавательный, исследования, WEB-DLRip]

Статистика раздачи
Размер:  6,46 GB   |    Зарегистрирован:  6 месяцев   |    Скачан:  15 раз
Сидов:  1  |  0 KB/s  ]   Личеров:  0  |  0 KB/s  ]

* - сиды/пиры с внешних источников

   
 
Автор Сообщение

ARI71 Пол:Муж

27-Май-2016 08:50

Загадки нашей Земли (1-11 серии из 11)


Год выпуска: 2015
Жанр: документальный, научно-познавательный, исследования
Страна: Россия ООО «ДОК-Синема»
Режиссер: Дмитрий Сорокин
Сюжет фильма:
Земля – это не просто планета, а живой организм, который способен радоваться, петь, говорить и… мстить. Она чувствует все, что происходит на ее поверхности. Неслучайно в 2011 году по всей планете люди слышали жуткий гул из ее недр – стон Земли. Познавательно-развлекательный цикл о происхождении нашей планеты и зарождении жизни «Загадки нашей Земли» в одиннадцати фильмах рассказывает о сенсационных открытиях современных ученых. Программа раскрывает тайны, которые человечество пыталось узнать долгие годы. Где находятся древние подземные лабиринты Земли и правда ли, что на самом деле это порталы, связывающие нас с предками? Какой была Земля до появления Луны? Как выглядел человек, который жил вместе с динозаврами? А как выглядела Земля миллионы лет назад и какое теперь занимает место среди других планет? Почему на Землю постоянно надвигаются опасные астероиды, однако никогда не достигают цели? Как выглядели монстры, которые 65 миллионов лет назад населяли нашу планету?

Релиз от:
Gorgona007
Качество видео: WEB-DLRip

Продолжительность: 11 х ~ 00:47:00
Формат: AVI
Видео: XviD, 720x400, ~1597 kbps
Аудио: русский, (оригинал), AC3 2.0, ~192.00 kbps
(тех. данные всех серий идентичны)
1 серия - Ангел-хранитель планеты
2 серия - Климат. Тропики в Арктике
3 серия - Планета с чувствами
4 серия - Тайны лабиринтов Земли
5 серия - Стон Земли
6 серия - Эра гигантов
7 серия - Рождение новой земли
8 серия - Месть земли
9 серия - Смертельное притяжение
10 серия - Сокровища предков
11 серия - Подземные миры

Код:

Общее
Полное имя : D:\Загадки нашей Земли.2015.WEB-DLRip.GeneralFilm\01.Ангел-хранитель планеты.2015.WEB-DLRip.GeneralFilm.avi
Формат : AVI
Формат/Информация : Audio Video Interleave
Размер файла : 559 Мбайт
Продолжительность : 43 м.
Общий поток : 1798 Кбит/сек
Программа кодирования : VirtualDubMod 1.5.10.3 | www.virtualdub-fr.org || (build 2550/release)
Библиотека кодирования : VirtualDubMod build 2550/release

Видео
Идентификатор : 0
Формат : MPEG-4 Visual
Профиль формата : Advanced Simple@L5
Параметр BVOP формата : 1
Параметр QPel формата : Нет
Параметр GMC формата : Без точки перехода
Параметр матрицы формата : Выборочная
Идентификатор кодека : XVID
Идентификатор кодека/Подсказка : XviD
Продолжительность : 43 м.
Битрейт : 1597 Кбит/сек
Ширина : 720 пикселей
Высота : 400 пикселей
Соотношение сторон : 16:9
Частота кадров : 25,000 кадров/сек
Цветовое пространство : YUV
Субдискретизация насыщенности : 4:2:0
Битовая глубина : 8 бит
Тип развёртки : Прогрессивная
Метод сжатия : С потерями
Бит/(Пиксели*Кадры) : 0.222
Размер потока : 496 Мбайт (89%)
Библиотека кодирования : XviD 73

Аудио
Идентификатор : 1
Формат : AC-3
Формат/Информация : Audio Coding 3
Расширение режима : CM (complete main)
Параметр Endianness формата : Big
Идентификатор кодека : 2000
Продолжительность : 43 м.
Вид битрейта : Постоянный
Битрейт : 192 Кбит/сек
Каналы : 2 канала
Расположение каналов : Front: L R
Частота : 48,0 КГц
Метод сжатия : С потерями
Размер потока : 59,7 Мбайт (11%)
Выравнивание : Разделение по промежуткам
Продолжительность промежутка : 40 мс. (1,00 видеокадр)
Время предзагрузки промежутка : 500 мс.
Релиз группы:

picpicpicpicpic
Для увеличения картинки щелкните мышкой по превью

Этот торрент недоступен для скачивания без регистрации, однако доступен по публичной magnet-ссылке (источники с публичных трекеров). Перед использованием ссылки прочтите, пожалуйста Пользовательское соглашение, а также как можно дольше оставайтесь на раздаче! Для того, чтобы скачать сам торрент-файл (который видит больше источников), а также для того, чтобы поблагодарить релизера, вам необходимо зарегистрироваться. Если регистрироваться лень - вы можете также попробовать скачать релиз по нашим партнерским ссылкам ниже.

[underverse.su].t66588.torrent
Трекер: Зарегистрирован   [ 27.05.2016 08:50 ]  

Статус: проверено (by makkol at 27.05.2016 10:50)
Поблагодарили: 1 человек
Тип торрента: публичный - доступные источники с открытых трекеров: 
Размер: 6,46 GB (занимает 1,48 DVDR, для записи нужно 2 болванки DVDR/RW)
 
 

Яндекс.Метрика powered by Sphinx


В Н И М А Н И Е
Сайт не распространяет и не хранит электронные версии произведений, а лишь бесплатно и без коммерческой выгоды (не требуя взамен платы,
SMS и т.д.) предоставляет доступ к создаваемому пользователями каталогу ссылок на торрент-файлы, которые содержат только списки хеш-сумм.
Убедительная просьба с жалобами обращаться напрямую к пользователю, разместившему торрент файл.

Вверх