Loading...
Error

Легенды серебряного века: фильм 2. Андрей Белый. Охота на ангела [2004 г., документальный, биография, литература, история, DVDRip]

Статистика раздачи
Размер:  700 MB   |    Зарегистрирован:  6 месяцев   |    Скачан:  2 раза

Полного источника не было: 6 месяцев

Сидов:  0  |  0 KB/s  ]   Личеров:  0  |  0 KB/s  ]

* - сиды/пиры с внешних источников

   
 
Автор Сообщение

ARI71 Пол:Муж

27-Май-2016 07:37

Легенды серебряного века: фильм 2. Андрей Белый. Охота на ангела


Год выпуска: 2004
Жанр: документальный, биография, литература, история
Страна: Россия Киностудия "Риск"
Режиссер: Андрей Осипов
Сюжет фильма:
"Легенды Серебряного века" - один из наиболее ярких проектов в российском документальном кино последнего десятилетия, отмеченный более чем 20 престижными кинонаградами в разных странах мира. Эта трилогия посвящена трем ярким фигурам русской поэзии начала века.
"Звездный гений" и "тщеславный позер", новый Гоголь" и "истерик кликуша" - так характеризовали современники одну из самых ярких и масштабных фигур серебряного века Андрея Белого. Его уникальная судьба раскрывается в фильме через мастерский монтаж фрагментов немого кино той эпохи.

Андрей Белый (настоящее имя Бори́с Никола́евич Буга́ев; 14 (26) октября 1880 год, Москва — 8 января 1934, там же) — русский писатель, поэт, критик, мемуарист, стиховед; один из ведущих деятелей русского символизма и модернизма в целом.

Качество видео: DVDRip

Продолжительность: 00:55:11
Формат: AVI
Видео: DivX 5, 640x480, ~1631 kbps
Аудио: русский, (оригинал), MP3 2.0, ~128.00 kbps

Код:

Общее
Полное имя : D:\2_Beliy_Ohota_na_angela.avi
Формат : AVI
Формат/Информация : Audio Video Interleave
Размер файла : 700 Мбайт
Продолжительность : 55 м.
Режим общего битрейта : Переменный
Общий поток : 1773 Кбит/сек
Программа кодирования : VirtualDubMod 1.5.10.1 (build 2439/release)
Библиотека кодирования : VirtualDubMod build 2439/release

Видео
Идентификатор : 0
Формат : MPEG-4 Visual
Параметр BVOP формата : 2
Параметр QPel формата : Нет
Параметр GMC формата : 2 точки перехода
Параметр матрицы формата : Default (H.263)
Идентификатор кодека : DX50
Идентификатор кодека/Подсказка : DivX 5
Продолжительность : 55 м.
Битрейт : 1631 Кбит/сек
Ширина : 640 пикселей
Высота : 480 пикселей
Соотношение сторон : 4:3
Частота кадров : 25,000 кадров/сек
Цветовое пространство : YUV
Субдискретизация насыщенности : 4:2:0
Битовая глубина : 8 бит
Тип развёртки : Прогрессивная
Метод сжатия : С потерями
Бит/(Пиксели*Кадры) : 0.212
Размер потока : 644 Мбайт (92%)
Библиотека кодирования : DivX 1328m

Аудио
Идентификатор : 1
Формат : MPEG Audio
Версия формата : Version 1
Профиль формата : Layer 3
Режим : Joint stereo
Расширение режима : MS Stereo
Идентификатор кодека : 55
Идентификатор кодека/Подсказка : MP3
Продолжительность : 55 м.
Вид битрейта : Переменный
Битрейт : 128 Кбит/сек
Каналы : 2 канала
Частота : 48,0 КГц
Метод сжатия : С потерями
Размер потока : 50,9 Мбайт (7%)
Выравнивание : Соединение по промежуткам
Продолжительность промежутка : 24 мс. (0,60 видеокадр)
Время предзагрузки промежутка : 494 мс.
Библиотека кодирования : LAME3.90.
Настройки программы : -m j -V 4 -q 2 -lowpass 17.6 --abr 128
picpicpicpicpic
Для увеличения картинки щелкните мышкой по превью

Этот торрент недоступен для скачивания без регистрации, однако доступен по публичной magnet-ссылке (источники с публичных трекеров). Перед использованием ссылки прочтите, пожалуйста Пользовательское соглашение, а также как можно дольше оставайтесь на раздаче! Для того, чтобы скачать сам торрент-файл (который видит больше источников), а также для того, чтобы поблагодарить релизера, вам необходимо зарегистрироваться. Если регистрироваться лень - вы можете также попробовать скачать релиз по нашим партнерским ссылкам ниже.

[underverse.su].t66586.torrent
Трекер: Зарегистрирован   [ 27.05.2016 07:37 ]  

Статус: проверено (by makkol at 27.05.2016 10:47)
Поблагодарили: пока никто не поблагодарил...
Тип торрента: публичный - доступные источники с открытых трекеров: 
Размер: 700 MB (занимает 0,16 DVDR, для записи нужно 1 болванка DVDR/RW)
 
 
Похожие темы
Форум Тема Автор Торрент Отв. Посл. сооб.
Личности Легенды серебряного века: фильм 3. Марина Цветаева. Страсти по Марине [2004 г., документальный, исторический, биографический, DVDRip] ARI71
2 | 0

0 | 616

2

27.05.2016 08:23

Личности Легенды серебряного века: Фильм 1. Максимилиан Волошин. Голоса [2004 г., документальный, исторический, биографический, DVDRip] ARI71
2 | 0

0 | 606

3

27.05.2016 06:30


Яндекс.Метрика powered by Sphinx


В Н И М А Н И Е
Сайт не распространяет и не хранит электронные версии произведений, а лишь бесплатно и без коммерческой выгоды (не требуя взамен платы,
SMS и т.д.) предоставляет доступ к создаваемому пользователями каталогу ссылок на торрент-файлы, которые содержат только списки хеш-сумм.
Убедительная просьба с жалобами обращаться напрямую к пользователю, разместившему торрент файл.

Вверх