Loading...
Error

Легенды серебряного века: Фильм 1. Максимилиан Волошин. Голоса [2004 г., документальный, исторический, биографический, DVDRip]

Статистика раздачи
Размер:  556 MB   |    Зарегистрирован:  6 месяцев   |    Скачан:  3 раза
Сидов:  1  |  0 KB/s  ]   Личеров:  0  |  0 KB/s  ]

* - сиды/пиры с внешних источников

   
 
Автор Сообщение

ARI71 Пол:Муж

27-Май-2016 06:30

Легенды серебряного века: Фильм 1. Максимилиан Волошин. Голоса


Год выпуска: 2004
Жанр: документальный, исторический, биографический
Страна: Россия Киностудия "Риск"
Режиссер: Андрей Осипов
Сюжет фильма:
"Легенды Серебряного века" - один из наиболее ярких проектов в российском документальном кино последнего десятилетия, отмеченный более чем 20 престижными кинонаградами в разных странах мира. Эта трилогия посвящена трем ярким фигурам русской поэзии начала века.
В смутную пору гражданской войны хозяин причудливого дома в Коктебеле укрывал здесь от расправы и белых, и красных… Здесь создавались тонкие стихи и прекрасные картины, здесь бывали Мандельштам, Булгаков, Цветаева… Загадочный дом, кажется, до сих пор хранит голоса героев той эпохи…

Максимилиа́н Алекса́ндрович Воло́шин (фамилия при рождении — Кирие́нко-Воло́шин; 16 [28] мая 1877, Киев, Российская империя — 11 августа 1932, Коктебель, Крымская АССР, СССР) — русский поэт, переводчик, художник-пейзажист, художественный и литературный критик.

Качество видео: DVDRip

Продолжительность: 00:44:40
Формат: AVI
Видео: DivX 5, 640x480, ~1608 kbps
Аудио: русский, (оригинал), MP3 2.0, ~121.00 kbps

Код:

Общее
Полное имя : D:\1_Voloshin_Golosa.avi
Формат : AVI
Формат/Информация : Audio Video Interleave
Размер файла : 556 Мбайт
Продолжительность : 44 м.
Режим общего битрейта : Переменный
Общий поток : 1742 Кбит/сек
Программа кодирования : VirtualDubMod 1.5.10.1 (build 2439/release)
Библиотека кодирования : VirtualDubMod build 2439/release

Видео
Идентификатор : 0
Формат : MPEG-4 Visual
Параметр BVOP формата : 2
Параметр QPel формата : Нет
Параметр GMC формата : 2 точки перехода
Параметр матрицы формата : Default (H.263)
Идентификатор кодека : DX50
Идентификатор кодека/Подсказка : DivX 5
Продолжительность : 44 м.
Битрейт : 1608 Кбит/сек
Ширина : 640 пикселей
Высота : 480 пикселей
Соотношение сторон : 4:3
Частота кадров : 25,000 кадров/сек
Цветовое пространство : YUV
Субдискретизация насыщенности : 4:2:0
Битовая глубина : 8 бит
Тип развёртки : Прогрессивная
Метод сжатия : С потерями
Бит/(Пиксели*Кадры) : 0.209
Размер потока : 514 Мбайт (92%)
Библиотека кодирования : DivX 1328m

Аудио
Идентификатор : 1
Формат : MPEG Audio
Версия формата : Version 1
Профиль формата : Layer 3
Режим : Joint stereo
Расширение режима : MS Stereo
Идентификатор кодека : 55
Идентификатор кодека/Подсказка : MP3
Продолжительность : 44 м.
Вид битрейта : Переменный
Битрейт : 121 Кбит/сек
Номинальный битрейт : 128 Кбит/сек
Каналы : 2 канала
Частота : 48,0 КГц
Метод сжатия : С потерями
Размер потока : 38,7 Мбайт (7%)
Выравнивание : Соединение по промежуткам
Продолжительность промежутка : 24 мс. (0,60 видеокадр)
Время предзагрузки промежутка : 513 мс.
Библиотека кодирования : LAME3.90.
Настройки программы : -m j -V 4 -q 2 -lowpass 17.6 --abr 128
picpicpicpicpic
Для увеличения картинки щелкните мышкой по превью

Этот торрент недоступен для скачивания без регистрации, однако доступен по публичной magnet-ссылке (источники с публичных трекеров). Перед использованием ссылки прочтите, пожалуйста Пользовательское соглашение, а также как можно дольше оставайтесь на раздаче! Для того, чтобы скачать сам торрент-файл (который видит больше источников), а также для того, чтобы поблагодарить релизера, вам необходимо зарегистрироваться. Если регистрироваться лень - вы можете также попробовать скачать релиз по нашим партнерским ссылкам ниже.

[underverse.su].t66585.torrent
Трекер: Зарегистрирован   [ 27.05.2016 06:30 ]  

Статус: проверено (by makkol at 27.05.2016 10:45)
Поблагодарили: пока никто не поблагодарил...
Тип торрента: публичный - доступные источники с открытых трекеров: 
Размер: 556 MB (занимает 0,12 DVDR, для записи нужно 1 болванка DVDR/RW)
 
 
Похожие темы
Форум Тема Автор Торрент Отв. Посл. сооб.
Личности Легенды серебряного века: фильм 3. Марина Цветаева. Страсти по Марине [2004 г., документальный, исторический, биографический, DVDRip] ARI71
2 | 0

0 | 614

2

27.05.2016 08:23

Личности Легенды серебряного века: фильм 2. Андрей Белый. Охота на ангела [2004 г., документальный, биография, литература, история, DVDRip] ARI71
2 | 0

0 | 669

2

27.05.2016 07:37


Яндекс.Метрика powered by Sphinx


В Н И М А Н И Е
Сайт не распространяет и не хранит электронные версии произведений, а лишь бесплатно и без коммерческой выгоды (не требуя взамен платы,
SMS и т.д.) предоставляет доступ к создаваемому пользователями каталогу ссылок на торрент-файлы, которые содержат только списки хеш-сумм.
Убедительная просьба с жалобами обращаться напрямую к пользователю, разместившему торрент файл.

Вверх