Loading...
Error

Время не ждет / Time Rush (Дэниэл Дзирилли) [2016 г., боевик, HDRip] MVO

Статистика раздачи
Размер:  1,36 GB   |    Зарегистрирован:  6 месяцев   |    Скачан:  13 раз

Полного источника не было: 2 месяца 21 день

Сидов:  0  |  0 KB/s  ]   Личеров:  0  |  0 KB/s  ]

* - сиды/пиры с внешних источников

   
 
Автор Сообщение

makkol Пол:Муж

26-Май-2016 22:50

Время не ждет / Time Rush


Год выпуска: 2016
Жанр: боевик
Производство: США [Pop/Art Film Factory, Stunt Power Films]
Режиссер: Дэниэл Дзирилли
В ролях: Хари Дас Ахатефу, Дин Александру, Майкл Эстон, Срисуван Асучевакамнжон, Нуттакан Буннджавай, Дэвид Буено
Сюжет фильма:
Алекс застрял в повторяющейся петле времени, он должен узнать правду, прокладывая свой путь через шумные улицы Бангкока и убегая от загадочных людей, которые хотят убить его.

  • Мировая премьера: 1 января 2016


Качество видео: HDRip

Продолжительность: 01:23:28
Формат: AVI
Видео: XviD, 720x400 (16:9), 23.976 fps, 1877 kbps
Аудио: русский, профессиональный многоголосый закадровый, AC3 5.1, 48 kHz, 448 kbps

Код:

Формат                                   : AVI
Формат/Информация                        : Audio Video Interleave
Размер файла                             : 1,36 Гбайт
Продолжительность                        : 1 ч. 23 м.
Общий поток                              : 2335 Кбит/сек
Программа кодирования                    : VirtualDubMod 1.5.10.2 (build 2542/release)
Библиотека кодирования                   : VirtualDubMod build 2542/release

Видео
Идентификатор                            : 0
Формат                                   : MPEG-4 Visual
Профиль формата                          : Advanced Simple@L5
Параметр BVOP формата                    : 2
Параметр QPel формата                    : Нет
Параметр GMC формата                     : Без точки перехода
Параметр матрицы формата                 : Выборочная
Идентификатор кодека                     : XVID
Идентификатор кодека/Подсказка           : XviD
Продолжительность                        : 1 ч. 23 м.
Битрейт                                  : 1877 Кбит/сек
Ширина                                   : 720 пикселей
Высота                                   : 400 пикселей
Соотношение сторон                       : 16:9
Частота кадров                           : 23,976 кадра/сек
Цветовое пространство                    : YUV
Субдискретизация насыщенности            : 4:2:0
Битовая глубина                          : 8 бит
Тип развёртки                            : Прогрессивная
Метод сжатия                             : С потерями
Бит/(Пиксели*Кадры)                      : 0.272
Размер потока                            : 1,09 Гбайт (80%)
Библиотека кодирования                   : XviD 1.2.1 (UTC 2008-12-04)

Аудио
Идентификатор                            : 1
Формат                                   : AC-3
Формат/Информация                        : Audio Coding 3
Расширение режима                        : CM (complete main)
Параметр Endianness формата              : Big
Идентификатор кодека                     : 2000
Продолжительность                        : 1 ч. 23 м.
Вид битрейта                             : Постоянный
Битрейт                                  : 448 Кбит/сек
Каналы                                   : 6 каналов
Расположение каналов                     : Front: L C R, Side: L R, LFE
Частота                                  : 48,0 КГц
Битовая глубина                          : 16 бит
Метод сжатия                             : С потерями
Задержка видео                           : 4 мс.
Размер потока                            : 267 Мбайт (19%)
Выравнивание                             : Разделение по промежуткам
Продолжительность промежутка             : 42  мс. (1,00 видеокадр)
Время предзагрузки промежутка            : 500  мс.
Paradox & Omskbird records
Перевод: Анна Помигуева
Озвучивание: Максим Максимов, Павел Ярощик, Владислав Данилов, Анастасия Флигина
Присутствует реклама


picpicpicpicpic
Для увеличения картинки щелкните мышкой по превью

Этот торрент недоступен для скачивания без регистрации, однако доступен по публичной magnet-ссылке (источники с публичных трекеров). Перед использованием ссылки прочтите, пожалуйста Пользовательское соглашение, а также как можно дольше оставайтесь на раздаче! Для того, чтобы скачать сам торрент-файл (который видит больше источников), а также для того, чтобы поблагодарить релизера, вам необходимо зарегистрироваться. Если регистрироваться лень - вы можете также попробовать скачать релиз по нашим партнерским ссылкам ниже.

[underverse.su].t66581.torrent
Трекер: Зарегистрирован   [ 26.05.2016 22:50 ]  

Статус: проверено (by makkol at 29.05.2016 23:31)
Поблагодарили: пока никто не поблагодарил...
Тип торрента: публичный - доступные источники с открытых трекеров: 
Размер: 1,36 GB (занимает 0,31 DVDR, для записи нужно 1 болванка DVDR/RW)
 
 
Похожие темы
Форум Тема Автор Торрент Отв. Посл. сооб.
Зарубежное кино [DVDRip, Low-Res HDRip, и т.д.] Время не ждет / Time Rush (Дэниэл Дзирилли / Daniel Zirilli) [2016 г., боевик, HDRip] VO (datynet) 90ytr90
97 | 2

0 | 512

8

04.05.2016 15:39

Зарубежное кино [HDDVDRip / BDRip / WEB-DL / HDTV 1080/720р] Время не ждет / Time Rush (Дэниэл Дзирилли) [2016 г., боевик, BDRip 720p] MVO + Original makkol
1 | 0

0 | 547

5

26.05.2016 23:03

Зарубежное кино [HDDVDRip / BDRip / WEB-DL / HDTV 1080/720р] Время не ждет / Time Rush (Дэниэл Дзирилли) [2016 г., боевик, BDRip 1080p] MVO + Original makkol
0 | 0

0 | 601

5

26.05.2016 23:12


Яндекс.Метрика powered by Sphinx


В Н И М А Н И Е
Сайт не распространяет и не хранит электронные версии произведений, а лишь бесплатно и без коммерческой выгоды (не требуя взамен платы,
SMS и т.д.) предоставляет доступ к создаваемому пользователями каталогу ссылок на торрент-файлы, которые содержат только списки хеш-сумм.
Убедительная просьба с жалобами обращаться напрямую к пользователю, разместившему торрент файл.

Вверх