Loading...
Error

Рыбачьте с нами. Видеоприложение (выпуск №6: Июнь) [2016 г., документальный, рыбалка, DVDRip]

Статистика раздачи
Размер:  708 MB   |    Зарегистрирован:  6 месяцев   |    Скачан:  10 раз

Полного источника не было: 9 дней

Сидов:  0  |  0 KB/s  ]   Личеров:  0  |  0 KB/s  ]

* - сиды/пиры с внешних источников

   
 
Автор Сообщение

ARI71 Пол:Муж

26-Май-2016 16:52

Рыбачьте с нами. Видеоприложение (выпуск №6: Июнь)


Год выпуска: 2016
Жанр: документальный, рыбалка
Страна: Россия Фиш-Информ
Режиссер: Алексей Фадеев
В ролях: Алексей Вьюнов, Владимир Виноградов, Евгений Баранов, Сергей Балашов
Сюжет фильма:
Очередной выпуск видеоприложения к журналу "Рыбачьте с нами" за июнь 2016 года. В выпуске: За голавлем на малые реки (Часть 1), Весенний фидер в Крыму (Часть 2), Воблер Agarron Pontoon21, Воблер FOP Pontoon21, Очки Cocoons, Рыболовная катушка "Удача", Магнитный держатель для приманок, Аттрактант Megastrike
Качество видео: DVDRip

Продолжительность: 00:50:00
Формат: AVI
Видео: XviD, 704x512, ~1715 kbps
Аудио: русский, (оригинал), MP3 2.0, ~256.00 kbps

Код:

Общее
Полное имя : D:\Rubachte.s.nami.Videoprilozhenie.Vupysk.6.Iyun.2016.XviD.DVDRip.veld30.avi.avi
Формат : AVI
Формат/Информация : Audio Video Interleave
Размер файла : 708 Мбайт
Продолжительность : 50 м.
Общий поток : 1980 Кбит/сек
Библиотека кодирования : VirtualDub build 35491/release

Видео
Идентификатор : 0
Формат : MPEG-4 Visual
Профиль формата : Advanced Simple@L5
Параметр BVOP формата : 2
Параметр QPel формата : Нет
Параметр GMC формата : Без точки перехода
Параметр матрицы формата : Default (H.263)
Режим смешивания : Сжатый битовый поток
Идентификатор кодека : XVID
Идентификатор кодека/Подсказка : XviD
Продолжительность : 50 м.
Битрейт : 1715 Кбит/сек
Ширина : 704 пикселя
Высота : 512 пикселей
Соотношение сторон : 1,375
Частота кадров : 25,000 кадров/сек
Цветовое пространство : YUV
Субдискретизация насыщенности : 4:2:0
Битовая глубина : 8 бит
Тип развёртки : Прогрессивная
Метод сжатия : С потерями
Бит/(Пиксели*Кадры) : 0.190
Размер потока : 613 Мбайт (87%)
Библиотека кодирования : XviD 73

Аудио
Идентификатор : 1
Формат : MPEG Audio
Версия формата : Version 1
Профиль формата : Layer 3
Режим : Joint stereo
Идентификатор кодека : 55
Идентификатор кодека/Подсказка : MP3
Продолжительность : 50 м.
Вид битрейта : Постоянный
Битрейт : 256 Кбит/сек
Каналы : 2 канала
Частота : 48,0 КГц
Метод сжатия : С потерями
Размер потока : 91,6 Мбайт (13%)
Выравнивание : Разделение по промежуткам
Продолжительность промежутка : 40 мс. (1,00 видеокадр)
Время предзагрузки промежутка : 500 мс.
picpicpicpicpic
Для увеличения картинки щелкните мышкой по превью

Этот торрент недоступен для скачивания без регистрации, однако доступен по публичной magnet-ссылке (источники с публичных трекеров). Перед использованием ссылки прочтите, пожалуйста Пользовательское соглашение, а также как можно дольше оставайтесь на раздаче! Для того, чтобы скачать сам торрент-файл (который видит больше источников), а также для того, чтобы поблагодарить релизера, вам необходимо зарегистрироваться. Если регистрироваться лень - вы можете также попробовать скачать релиз по нашим партнерским ссылкам ниже.

[underverse.su].t66573.torrent
Трекер: Зарегистрирован   [ 26.05.2016 16:52 ]  

Статус: проверено (by makkol at 26.05.2016 23:21)
Поблагодарили: пока никто не поблагодарил...
Тип торрента: публичный - доступные источники с открытых трекеров: 
Размер: 708 MB (занимает 0,16 DVDR, для записи нужно 1 болванка DVDR/RW)
 
 
Похожие темы
Форум Тема Автор Торрент Отв. Посл. сооб.
Рыбалка Рыбачьте с нами. выпуск 17 [Январь 2011 г., видеожурнал, рыбалка , DVDRip] МУХА~
0 | 0

0 | 2577

16

20.01.2011 16:13

Рыбалка Рыбачьте с нами. выпуск 18 [Февраль 2011 г., Рыбалка. Документальный., DVDRip] МУХА~
0 | 0

1 | 1601

10

07.04.2011 17:50

Рыбалка Рыбачьте с нами. Выпуск №19. [Март 2011 г., Рыбалка. Документальный., DVDRip] МУХА~
0 | 0

0 | 2036

7

07.03.2011 13:32

Рыбалка Рыбачьте с нами. Выпуск №20. [Апрель 2011 г., Рыбалка. Документальный., DVDRip] МУХА~
0 | 0

1 | 1107

9

26.04.2011 23:20

Рыбалка Рыбачьте с нами. Выпуск №21. [Май 2011 г., Рыбалка. Документальный., DVDRip] МУХА~
0 | 0

0 | 1941

11

14.05.2011 10:08

Рыбалка Рыбачьте с нами. Выпуск №22. [Июнь 2011 г., Рыбалка. Документальный., DVDRip] МУХА~
0 | 0

0 | 1321

10

05.06.2011 09:51

Рыбалка Рыбачьте с нами. Выпуск №27. [Ноябрь 2011 г., Рыбалка. Документальный., DVDRip] МУХА~
0 | 0

0 | 1790

11

28.10.2011 10:43

Рыбалка Рыбачьте с нами. Выпуск №28 [Декабрь 2011 г., Рыбалка. Документальный., DVDRip] МУХА~
0 | 0

1 | 1251

7

29.11.2011 16:51

Рыбалка Рыбачьте с нами. Выпуск №29 [Январь 2012 г., Рыбалка. Документальный., DVDRip] МУХА~
0 | 0

0 | 991

9

05.01.2012 11:35

Рыбалка Рыбачьте с нами. Выпуск №30 [Февраль 2012 г., Рыбалка. Документальный., DVDRip] МУХА~
0 | 0

0 | 1914

11

03.02.2012 19:26


Яндекс.Метрика powered by Sphinx


В Н И М А Н И Е
Сайт не распространяет и не хранит электронные версии произведений, а лишь бесплатно и без коммерческой выгоды (не требуя взамен платы,
SMS и т.д.) предоставляет доступ к создаваемому пользователями каталогу ссылок на торрент-файлы, которые содержат только списки хеш-сумм.
Убедительная просьба с жалобами обращаться напрямую к пользователю, разместившему торрент файл.

Вверх