Loading...
Error

Летающий класс / Das Fliegende Klassenzimmer (Вернер Якобс) [1973 г., детский, комедия, приключения, DVDRip] VO + Original + Subs

Статистика раздачи
Размер:  1,49 GB   |    Зарегистрирован:  6 месяцев   |    Скачан:  1 раз

Полного источника не было: 6 месяцев

Сидов:  0  |  0 KB/s  ]   Личеров:  0  |  0 KB/s  ]

* - сиды/пиры с внешних источников

   
 
Автор Сообщение

makkol Пол:Муж

26-Май-2016 15:42

Летающий класс / Das Fliegende Klassenzimmer


Год выпуска: 1973
Жанр: детский, комедия, приключения
Производство: Германия [Franz Seitz Filmproduktion, Terra-Filmkunst]
Режиссер: Вернер Якобс
В ролях: Йоахим Фуксбергер, Хайнц Райнке, Диана Кёрнер, Бернд Херцшпрунг, Отто Болеш, Анита Мали, Тило фон Берлепш, Аннемари Вернике, Гудула Блау, Вольфганг Шварц, Яне Хемпель, Отто Курт, Роберт Ярчик, Ганс Путц, Томас Экер, Дэниэл Мюллер, Марк Равенсхофен, Алоис Миттермайер
Сюжет фильма:
Эта популярная немецкая история была воссоздана в фильмах уже несколько раз.
Озорной мальчишка по имени Джонни Троц, случайно побывавший в кабине настоящего авиалайнера и даже успевший там "порулить", делится воспоминаниями со своим другом по школе-интернату. Малыш Ули загорается идеей самому научится летать, для чего он решает спрыгнуть с крыши, имея при себе только зонтик...
Радикальная экранизация известного романа Эриха Кестнера насыщена и другими приключениями ребят, такими как война со старшеклассниками из другой школы, неожиданная встреча их наставника со своим старым другом, бывшим воспитанником этого же интерната и грандиозно сыгранная школьная сценическая постановка, где самое значительное - конечно, самолет! И наконец, класс действительно полетит, на этот раз в Найроби.

  • Мировая премьера: 26 октября 1973


Качество видео: DVDRip

Продолжительность: 01:28:08
Формат: AVI
Видео: XviD, 720x544@967x544 (16:9), 25.000 fps, 2017 kbps
Аудио #1: русский, любительский одноголосый закадровый (Семен Ващенко), AC3 2.0, 48 kHz, 192 kbps
Аудио #2: немецкий, оригинал, AC3 2.0, 48 kHz, 192 kbps
Субтитры: русские (Mig_88), немецкие внешние, SRT

Код:

Формат                                   : AVI
Формат/Информация                        : Audio Video Interleave
Размер файла                             : 1,49 Гбайт
Продолжительность                        : 1 ч. 28 м.
Общий поток                              : 2415 Кбит/сек
Программа кодирования                    : VirtualDubModRus 1.5.10.2 (build 2542/release)
Библиотека кодирования                   : VirtualDubMod build 2542/release

Видео
Идентификатор                            : 0
Формат                                   : MPEG-4 Visual
Профиль формата                          : Advanced Simple@L5
Параметр BVOP формата                    : 1
Параметр QPel формата                    : Нет
Параметр GMC формата                     : Без точки перехода
Параметр матрицы формата                 : Выборочная
Идентификатор кодека                     : XVID
Идентификатор кодека/Подсказка           : XviD
Продолжительность                        : 1 ч. 28 м.
Битрейт                                  : 2017 Кбит/сек
Ширина                                   : 720 пикселей
Высота                                   : 544 пикселя
Соотношение сторон                       : 4:3
Частота кадров                           : 25,000 кадров/сек
Цветовое пространство                    : YUV
Субдискретизация насыщенности            : 4:2:0
Битовая глубина                          : 8 бит
Тип развёртки                            : Прогрессивная
Метод сжатия                             : С потерями
Бит/(Пиксели*Кадры)                      : 0.206
Размер потока                            : 1,24 Гбайт (84%)
Библиотека кодирования                   : XviD 1.2.1 (UTC 2008-12-04)

Аудио #1
Идентификатор                            : 1
Формат                                   : AC-3
Формат/Информация                        : Audio Coding 3
Расширение режима                        : CM (complete main)
Параметр Endianness формата              : Big
Идентификатор кодека                     : 2000
Продолжительность                        : 1 ч. 27 м.
Вид битрейта                             : Постоянный
Битрейт                                  : 192 Кбит/сек
Каналы                                   : 2 канала
Расположение каналов                     : Front: L R
Частота                                  : 48,0 КГц
Метод сжатия                             : С потерями
Размер потока                            : 121 Мбайт (8%)
Выравнивание                             : Разделение по промежуткам
Продолжительность промежутка             : 40  мс. (1,00 видеокадр)
Время предзагрузки промежутка            : 500  мс.
Заголовок                                : Семен Ващенко

Аудио #2
Идентификатор                            : 2
Формат                                   : AC-3
Формат/Информация                        : Audio Coding 3
Расширение режима                        : CM (complete main)
Параметр Endianness формата              : Big
Идентификатор кодека                     : 2000
Продолжительность                        : 1 ч. 27 м.
Вид битрейта                             : Постоянный
Битрейт                                  : 192 Кбит/сек
Каналы                                   : 2 канала
Расположение каналов                     : Front: L R
Частота                                  : 48,0 КГц
Метод сжатия                             : С потерями
Задержка видео                           : 478 мс.
Размер потока                            : 121 Мбайт (8%)
Выравнивание                             : Разделение по промежуткам
Продолжительность промежутка             : 40  мс. (1,00 видеокадр)
Время предзагрузки промежутка            : 500  мс.
Релиз:

picpicpicpicpic
Для увеличения картинки щелкните мышкой по превью

Этот торрент недоступен для скачивания без регистрации, однако доступен по публичной magnet-ссылке (источники с публичных трекеров). Перед использованием ссылки прочтите, пожалуйста Пользовательское соглашение, а также как можно дольше оставайтесь на раздаче! Для того, чтобы скачать сам торрент-файл (который видит больше источников), а также для того, чтобы поблагодарить релизера, вам необходимо зарегистрироваться. Если регистрироваться лень - вы можете также попробовать скачать релиз по нашим партнерским ссылкам ниже.

[underverse.su].t66571.torrent
Трекер: Зарегистрирован   [ 26.05.2016 15:42 ]  

Статус: проверено (by makkol at 26.05.2016 15:43)
Поблагодарили: пока никто не поблагодарил...
Тип торрента: публичный - доступные источники с открытых трекеров: 
Размер: 1,49 GB (занимает 0,34 DVDR, для записи нужно 1 болванка DVDR/RW)
 
 
Похожие темы
Форум Тема Автор Торрент Отв. Посл. сооб.
Зарубежное кино [HDDVDRip / BDRip / WEB-DL / HDTV 1080/720р] Летающий класс / Das Fliegende Klassenzimmer (Вернер Якобс) [1973 г., детский, комедия, приключения, HDTVRip 720p] VO + Original makkol
2 | 0

0 | 620

0

27.05.2016 16:07

Архив Летающий корабль-призрак / Sora tobu yureisen,(Хироши Икеда) [5 мая 1969, фантастика, приключения, DVDRip] LAMA
0 | 0

4 | 1296

2

08.10.2010 21:24


Яндекс.Метрика powered by Sphinx


В Н И М А Н И Е
Сайт не распространяет и не хранит электронные версии произведений, а лишь бесплатно и без коммерческой выгоды (не требуя взамен платы,
SMS и т.д.) предоставляет доступ к создаваемому пользователями каталогу ссылок на торрент-файлы, которые содержат только списки хеш-сумм.
Убедительная просьба с жалобами обращаться напрямую к пользователю, разместившему торрент файл.

Вверх