Loading...
Error

Научные сенсации (1-4 серии из 4) [2014 г., документальный, познавательный, научные исследования, HDTVRip 720p]

Статистика раздачи
Размер:  2,94 GB   |    Зарегистрирован:  6 месяцев   |    Скачан:  5 раз

Полного источника не было: 12 дней

Сидов:  0  |  0 KB/s  ]   Личеров:  0  |  0 KB/s  ]

* - сиды/пиры с внешних источников

   
 
Автор Сообщение

ARI71 Пол:Муж

26-Май-2016 15:36

Научные сенсации (1-4 серии из 4)


Год выпуска: 2014
Жанр: документальный, познавательный, научные исследования
Страна: Россия ВГТРК
Сюжет фильма:
Это цикл фильмов, рассказывающих о сенсационных научных открытиях и достижениях наших дней. Это научные прорывы, меняющие представление людей о мире, а в перспективе - жизнь человечества. Особенностью цикла является актуальность достижений, о которых будет рассказано. Например, "лекарство от старости" академика Скулачева как раз в этом году будет проходить клинические испытания, а сообщения о подтвержденном управляемом холодном термоядерном синтезе появились только в феврале 2014 года. Проект ставит своей задачей дать зрителю представление о месте новейших достижений в самом широком ряду современных научных представлений.
Качество видео: HDTVRip 720p

Продолжительность: 4 x ~00:52:00
Формат: MKV
Видео: V_MPEG4/ISO/AVC, 1280x720, ~1760 kbps
Аудио: русский, (оригинал), AC3 2.0, ~224.00 kbps
(тех. данные всех серий идентичны)
01. Мой враг - мозг
Проблема свободы воли интересовала философов еще со времен античности. Она актуальна и теперь. Современные ученые пытаются найти ответ на вопрос о том, свободен ли человек в своем выборе, применяя новейшие технологии.

02. Хакеры смерти
Долгих лет и здоровья - главное пожелание людей друг другу. Все хотят дожить до преклонных лет и не мучиться от старческих болезней, но среди людей крайне мало настоящих долгожителей. Природа заложила в нас программу постепенного старения. Сегодня нашлись хакеры, которые смогли взломать этот сложнейший код. Мы определенно не обязаны дряхлеть с возрастом, становится немощными и быть обузой своим потомкам. Подтверждение этому - уникальные организмы-долгожители, которые не болеют и могут размножаться до самой смерти. Как веками люди боролись за продление своей жизни, и что сегодня может предложить наука для тех, кто хочет жить долго и счастливо? Ученые до сих пор ищут эликсир молодости в своих лабораториях, и, вероятно, заветное лекарство от старости уже у них в руках.

03.Потепление - обратный отсчет
В третьем тысячелетии погода на планете становится все более непредсказуемой. Изменение климата влечет стихийные бедствия и разрушения: тают тысячелетние ледники, поднимается уровень океана. Наводнения, мощные циклоны и прочие катаклизмы происходят все чаще. Научное сообщество бьет тревогу - на Земле идет глобальное потепление, и виновато в нем человечество. Большинство ученых считают: своей промышленной деятельностью наша цивилизация спровоцировала необратимые процессы на планете. Но насколько страшны эти изменения, кто или что на самом деле управляет климатом и влияет на него, и кому сегодня выгодно считать человечество виновником глобального потепления?

04. Геномное рабство
Невероятные подробности жизни наших древних предков. Доисторические Адам и Ева. Нераскрытый потенциал человеческого организма. Лечение заболеваний еще до рождения. Все это - не заголовки желтой прессы. А реальные достижения генетики, которая развивается невероятными темпами. От чего зависит внешность, предрасположенность к заболеваниям, наш характер и способности? Каково прошлое и будущее человека и человечества? Что общего между человеком и аквариумной рыбкой? И каким образом светящиеся кошки помогут избавить человечество от ВИЧ? Ответы содержатся в молекуле ДНК. Какие еще тайны скрывает эта двойная спираль?

Код:

Общее
Уникальный идентификатор : 103363990293730200862815323439922828734 (0x4DC32E2F34B4F45C16A7D9B0FF5E55BE)
Полное имя : D:\Научные сенсации.2014.HDTV720p.Generalfilm\Н.С.01.Мой враг-мозг.2014.HDTV720p.Generalfilm.mkv
Формат : Matroska
Версия формата : Version 4 / Version 2
Размер файла : 754 Мбайт
Продолжительность : 52 м.
Режим общего битрейта : Переменный
Общий поток : 2025 Кбит/сек
Программа кодирования : Lavf56.36.100
Библиотека кодирования : Lavf56.36.100

Видео
Идентификатор : 1
Формат : AVC
Формат/Информация : Advanced Video Codec
Профиль формата : High@L3.1
Параметр CABAC формата : Да
Параметр ReFrames формата : 2 кадра
Идентификатор кодека : V_MPEG4/ISO/AVC
Продолжительность : 52 м.
Вид битрейта : Переменный
Битрейт : 1760 Кбит/сек
Максимальный битрейт : 2400 Кбит/сек
Ширина : 1280 пикселей
Высота : 720 пикселей
Соотношение сторон : 16:9
Режим частоты кадров : Постоянный
Частота кадров : 25,000 кадров/сек
Цветовое пространство : YUV
Субдискретизация насыщенности : 4:2:0
Битовая глубина : 8 бит
Тип развёртки : Прогрессивная
Бит/(Пиксели*Кадры) : 0.076
Размер потока : 656 Мбайт (87%)
Default : Да
Forced : Нет

Аудио
Идентификатор : 2
Формат : AC-3
Формат/Информация : Audio Coding 3
Расширение режима : CM (complete main)
Параметр Endianness формата : Big
Идентификатор кодека : A_AC3
Продолжительность : 52 м.
Вид битрейта : Постоянный
Битрейт : 224 Кбит/сек
Каналы : 2 канала
Расположение каналов : Front: L R
Частота : 48,0 КГц
Метод сжатия : С потерями
Задержка видео : 24 мс.
Размер потока : 83,4 Мбайт (11%)
Default : Да
Forced : Нет
picpicpicpicpic
Для увеличения картинки щелкните мышкой по превью

Этот торрент недоступен для скачивания без регистрации, однако доступен по публичной magnet-ссылке (источники с публичных трекеров). Перед использованием ссылки прочтите, пожалуйста Пользовательское соглашение, а также как можно дольше оставайтесь на раздаче! Для того, чтобы скачать сам торрент-файл (который видит больше источников), а также для того, чтобы поблагодарить релизера, вам необходимо зарегистрироваться. Если регистрироваться лень - вы можете также попробовать скачать релиз по нашим партнерским ссылкам ниже.

[underverse.su].t66570.torrent
Трекер: Зарегистрирован   [ 26.05.2016 15:36 ]  

Статус: проверено (by makkol at 26.05.2016 16:09)
Поблагодарили: 1 человек
Тип торрента: публичный - доступные источники с открытых трекеров: 
Размер: 2,94 GB (занимает 0,67 DVDR, для записи нужно 1 болванка DVDR/RW)
 
 

Яндекс.Метрика powered by Sphinx


В Н И М А Н И Е
Сайт не распространяет и не хранит электронные версии произведений, а лишь бесплатно и без коммерческой выгоды (не требуя взамен платы,
SMS и т.д.) предоставляет доступ к создаваемому пользователями каталогу ссылок на торрент-файлы, которые содержат только списки хеш-сумм.
Убедительная просьба с жалобами обращаться напрямую к пользователю, разместившему торрент файл.

Вверх