Loading...
Error

Космические лоцманы [2005 г., документальный, космонавтика, научно-познавательный, история, SatRip]

Статистика раздачи
Размер:  610 MB   |    Зарегистрирован:  6 месяцев   |    Скачан:  0 раз

Полного источника не было: 6 месяцев

Сидов:  0  |  0 KB/s  ]   Личеров:  0  |  0 KB/s  ]

* - сиды/пиры с внешних источников

   
 
Автор Сообщение

ARI71 Пол:Муж

26-Май-2016 05:55

Космические лоцманы


Год выпуска: 2005
Жанр: документальный, космонавтика, научно-познавательный, история
Страна: Россия «XXI век», Телеканал «ОТР»
Режиссер: Алексей Малечкин, Сергей Линников
Сюжет фильма:
В 1949 году советские ученые приступили к разработке темы «Физиолого-гигиеническое обоснование полета в особых условиях». Что творилось за забором «почтового ящика» - знали лишь посвященные в тайну космического проекта. Разрешение проводить испытания на выживаемость человека в экстремальных условиях было дано лично Сталиным. Эксперименты проводились над живыми людьми – после микробов и животных врачи ставили опыты на себе, чтобы те, кто пойдет за ними, были готовы ко всему, что может произойти на околоземной орбите: испытания запаса прочности человеческого тела, ударные перегрузки, выживание в холоде. Герои фильма: доктор медицинских наук, профессор, академик РАО Владимир Александрович Пономаренко; майор в отставке, артист Джон Иванович Гридунов; полковник медицинской службы в отставке, научный сотрудник ГНИИИ ВМ Алек Зорабович Мнацаканян.
Качество видео: SatRip

Продолжительность: 00:52:12
Формат: AVI
Видео: XviD, 704x432, ~1497 kbps
Аудио: русский, (оригинал), MP3 2.0, ~128.00 kbps

Код:

Общее
Полное имя : D:\Космические лоцманы (DaVinci).avi
Формат : AVI
Формат/Информация : Audio Video Interleave
Размер файла : 610 Мбайт
Продолжительность : 52 м.
Общий поток : 1634 Кбит/сек
Библиотека кодирования : VirtualDub build 35491/release

Видео
Идентификатор : 0
Формат : MPEG-4 Visual
Профиль формата : Advanced Simple@L5
Параметр BVOP формата : 2
Параметр QPel формата : Нет
Параметр GMC формата : Без точки перехода
Параметр матрицы формата : Default (H.263)
Режим смешивания : Сжатый битовый поток
Идентификатор кодека : XVID
Идентификатор кодека/Подсказка : XviD
Продолжительность : 52 м.
Битрейт : 1497 Кбит/сек
Ширина : 704 пикселя
Высота : 432 пикселя
Соотношение сторон : 16:10
Частота кадров : 25,000 кадров/сек
Цветовое пространство : YUV
Субдискретизация насыщенности : 4:2:0
Битовая глубина : 8 бит
Тип развёртки : Прогрессивная
Метод сжатия : С потерями
Бит/(Пиксели*Кадры) : 0.197
Размер потока : 559 Мбайт (92%)
Библиотека кодирования : XviD 1.2.1 (UTC 2008-12-04)

Аудио
Идентификатор : 1
Формат : MPEG Audio
Версия формата : Version 1
Профиль формата : Layer 3
Режим : Joint stereo
Расширение режима : MS Stereo
Идентификатор кодека : 55
Идентификатор кодека/Подсказка : MP3
Продолжительность : 52 м.
Вид битрейта : Постоянный
Битрейт : 128 Кбит/сек
Каналы : 2 канала
Частота : 48,0 КГц
Метод сжатия : С потерями
Размер потока : 47,8 Мбайт (8%)
Выравнивание : Разделение по промежуткам
Продолжительность промежутка : 40 мс. (1,00 видеокадр)
Время предзагрузки промежутка : 500 мс.
picpicpicpicpic
Для увеличения картинки щелкните мышкой по превью

Этот торрент недоступен для скачивания без регистрации, однако доступен по публичной magnet-ссылке (источники с публичных трекеров). Перед использованием ссылки прочтите, пожалуйста Пользовательское соглашение, а также как можно дольше оставайтесь на раздаче! Для того, чтобы скачать сам торрент-файл (который видит больше источников), а также для того, чтобы поблагодарить релизера, вам необходимо зарегистрироваться. Если регистрироваться лень - вы можете также попробовать скачать релиз по нашим партнерским ссылкам ниже.

[underverse.su].t66565.torrent
Трекер: Зарегистрирован   [ 26.05.2016 05:55 ]  

Статус: проверено (by makkol at 26.05.2016 10:03)
Поблагодарили: пока никто не поблагодарил...
Тип торрента: публичный - доступные источники с открытых трекеров: 
Размер: 610 MB (занимает 0,14 DVDR, для записи нужно 1 болванка DVDR/RW)
 
 
Похожие темы
Форум Тема Автор Торрент Отв. Посл. сооб.
Зарубежное кино [DVDRip, Low-Res HDRip, и т.д.] Космические дальнобойщики / Space Truckers (Стюарт Гордон) [1996 г., фантастика, триллер, комедия, приключения, DVDRip-AVC] MVO + Original RG NewCinema
1 | 0

0 | 1099

33

08.04.2013 06:45

Зарубежное кино [DVDRip, Low-Res HDRip, и т.д.] Космические воины / Space Warriors (Шон МакНамара) [2013 г., семейный, HDRip] MVO Паукан
14 | 0

0 | 1639

49

25.07.2014 11:38

Зарубежные сериалы Космические Хулиганы / Firefly, Stargate: Atlantis / Серии 1-10 (10) (Джосс Уидон, Верн Джиллам, Тим Минеар) [2013 г., Пародия, комедия, фантастика, DVDRip] VO Чертёнок
0 | 0

0 | 903

41

18.07.2013 20:37

T Зарубежные мультфильмы Космический пират Харлок / Space Pirate Captain Harlock (Синдзи Арамаки) [2013 г., мультфильм, фантастика, боевик, приключения, HDRip] [расширенная версия] MVO + Sub (Rus) 90ytr90
0 | 0

0 | 1366

60

15.03.2014 14:45

T Зарубежные мультфильмы Космический пират Харлок / Space Pirate Captain Harlock (Синдзи Арамаки) [2013 г., мультфильм, фантастика, боевик, приключения, HDRip] [расширенная версия] MVO + Original (Jap) + Sub (Rus) 90ytr90
0 | 0

0 | 1279

14

15.03.2014 14:51

T Зарубежные мультфильмы Космический пират Харлок / Space Pirate Captain Harlock (Синдзи Арамаки) [2013 г., мультфильм, фантастика, боевик, приключения, BDRip-AVC] [расширенная версия] MVO + Original (Jap) + Sub (Rus) 90ytr90
0 | 0

0 | 1289

24

15.03.2014 15:00

T Зарубежные мультфильмы Космический пират Харлок / Space Pirate Captain Harlock (Синдзи Арамаки) [2013 г., мультфильм, фантастика, боевик, приключения, HDRip] [расширенная версия] Dub [Чистый звук] Паукан
2 | 0

0 | 991

39

20.07.2014 06:35

T Зарубежные мультфильмы Космический пират Харлок / Space Pirate Captain Harlock (Синдзи Арамаки) [2013 г., мультфильм, фантастика, боевик, приключения, HDRip] Dub (iTunes) 90ytr90
20 | 0

0 | 484

15

02.10.2014 06:09

T Зарубежные мультфильмы Космический пират Харлок / Space Pirate Captain Harlock (Синдзи Арамаки) [2013 г., мультфильм, фантастика, боевик, приключения, HDRip] Dub (iTunes) + Original (Eng) 90ytr90
1 | 0

0 | 540

18

02.10.2014 06:12

Зарубежные мультфильмы Космический пират Харлок / Space Pirate Captain Harlock (Синдзи Арамаки / Shinji Aramaki) [2013 г., мультфильм, фантастика, боевик, приключения, BDRip-AVC] [расширенная версия] AVO (Живов) + Original... 90ytr90
0 | 0

0 | 341

2

27.11.2014 10:33


Яндекс.Метрика powered by Sphinx


В Н И М А Н И Е
Сайт не распространяет и не хранит электронные версии произведений, а лишь бесплатно и без коммерческой выгоды (не требуя взамен платы,
SMS и т.д.) предоставляет доступ к создаваемому пользователями каталогу ссылок на торрент-файлы, которые содержат только списки хеш-сумм.
Убедительная просьба с жалобами обращаться напрямую к пользователю, разместившему торрент файл.

Вверх