Loading...
Error

Дикие лошади / Wild Horses (Роберт Дювалл) [2015 г., драма, криминал, HDRip] Dub (Line)

Статистика раздачи
Размер:  1,37 GB   |    Зарегистрирован:  6 месяцев   |    Скачан:  14 раз

Полного источника не было: 5 месяцев 10 дней

Сидов:  0  |  0 KB/s  ]   Личеров:  0  |  0 KB/s  ]

* - сиды/пиры с внешних источников

   
 
Автор Сообщение

makkol Пол:Муж

25-Май-2016 23:04

Дикие лошади / Wild Horses


Год выпуска: 2015
Жанр: драма, криминал
Производство: США [Patriot Pictures LLC]
Режиссер: Роберт Дювалл
В ролях: Роберт Дювалл, Джеймс Франко, Джош Хартнетт, Лусиана Педраса, Энджи Сепеда, Джим Пэррак, Адриана Барраса, Хоакин Джексон, Кристиан Дженсен
Сюжет фильма:
Техасские рейнджеры расследуют исчезновение мальчика, произошедшее пятнадцать лет назад. Улики приводят их на ферму, однако нынешний ее владелец отказывается от какого-либо сотрудничества.

  • Мировая премьера: 17 марта 2015


Качество видео: HDRip

Продолжительность: 01:43:36
Формат: AVI
Видео: XviD, 720x304 (2.35:1), 23.976 fps, 1499 kbps
Аудио: русский, дублированный (чистый звук), AC3 2.0, 48 kHz, 384 kbps

Код:

Формат                                   : AVI
Формат/Информация                        : Audio Video Interleave
Размер файла                             : 1,37 Гбайт
Продолжительность                        : 1 ч. 43 м.
Общий поток                              : 1892 Кбит/сек
Программа кодирования                    : VirtualDubModRus 1.5.10.2 (build 2542/release)
Библиотека кодирования                   : VirtualDubMod build 2542/release

Видео
Идентификатор                            : 0
Формат                                   : MPEG-4 Visual
Профиль формата                          : Advanced Simple@L5
Параметр BVOP формата                    : 2
Параметр QPel формата                    : Нет
Параметр GMC формата                     : Без точки перехода
Параметр матрицы формата                 : Выборочная
Идентификатор кодека                     : XVID
Идентификатор кодека/Подсказка           : XviD
Продолжительность                        : 1 ч. 43 м.
Битрейт                                  : 1499 Кбит/сек
Ширина                                   : 720 пикселей
Высота                                   : 304 пикселя
Соотношение сторон                       : 2,35:1
Частота кадров                           : 23,976 (23976/1000) кадра/сек
Цветовое пространство                    : YUV
Субдискретизация насыщенности            : 4:2:0
Битовая глубина                          : 8 бит
Тип развёртки                            : Прогрессивная
Метод сжатия                             : С потерями
Бит/(Пиксели*Кадры)                      : 0.286
Размер потока                            : 1,09 Гбайт (79%)
Библиотека кодирования                   : XviD 1.2.1 (UTC 2008-12-04)

Аудио
Идентификатор                            : 1
Формат                                   : AC-3
Формат/Информация                        : Audio Coding 3
Расширение режима                        : CM (complete main)
Параметр Endianness формата              : Big
Идентификатор кодека                     : 2000
Продолжительность                        : 1 ч. 43 м.
Вид битрейта                             : Постоянный
Битрейт                                  : 384 Кбит/сек
Каналы                                   : 2 канала
Расположение каналов                     : Front: L R
Частота                                  : 48,0 КГц
Частота кадров                           : 31,250 кадров/сек (1536 spf)
Метод сжатия                             : С потерями
Размер потока                            : 285 Мбайт (20%)
Выравнивание                             : Разделение по промежуткам
Продолжительность промежутка             : 42  мс. (1,00 видеокадр)
Время предзагрузки промежутка            : 500  мс.
picpicpicpicpic
Для увеличения картинки щелкните мышкой по превью

Этот торрент недоступен для скачивания без регистрации, однако доступен по публичной magnet-ссылке (источники с публичных трекеров). Перед использованием ссылки прочтите, пожалуйста Пользовательское соглашение, а также как можно дольше оставайтесь на раздаче! Для того, чтобы скачать сам торрент-файл (который видит больше источников), а также для того, чтобы поблагодарить релизера, вам необходимо зарегистрироваться. Если регистрироваться лень - вы можете также попробовать скачать релиз по нашим партнерским ссылкам ниже.

[underverse.su].t66563.torrent
Трекер: Зарегистрирован   [ 25.05.2016 23:04 ]  

Статус: T временная (by makkol at 27.05.2016 23:22)
Поблагодарили: пока никто не поблагодарил...
Тип торрента: публичный - доступные источники с открытых трекеров: 
Размер: 1,37 GB (занимает 0,31 DVDR, для записи нужно 1 болванка DVDR/RW)
 
 
Похожие темы
Форум Тема Автор Торрент Отв. Посл. сооб.
Зарубежное кино [DVDRip, Low-Res HDRip, и т.д.] Дикие лошади / Wild Horses (Роберт Дювалл) [2015 г., драма, криминальный, HDRip] VO makkol
4 | 0

0 | 333

10

26.06.2015 14:06

T Зарубежное кино [HDDVDRip / BDRip / WEB-DL / HDTV 1080/720р] Дикие лошади / Wild Horses (Роберт Дювалл) [2015 г., драма, криминал, BDRip 1080p] Dub (Line) + Original + Subs makkol
2 | 0

0 | 595

3

27.05.2016 23:30


Яндекс.Метрика powered by Sphinx


В Н И М А Н И Е
Сайт не распространяет и не хранит электронные версии произведений, а лишь бесплатно и без коммерческой выгоды (не требуя взамен платы,
SMS и т.д.) предоставляет доступ к создаваемому пользователями каталогу ссылок на торрент-файлы, которые содержат только списки хеш-сумм.
Убедительная просьба с жалобами обращаться напрямую к пользователю, разместившему торрент файл.

Вверх