Loading...
Error

Олег Даль - между прошлым и будущим [2011 г., документальный, биография, кинематограф, SatRip]

Статистика раздачи
Размер:  421 MB   |    Зарегистрирован:  6 месяцев   |    Скачан:  5 раз

Полного источника не было: 4 месяца 13 дней

Сидов:  0  |  0 KB/s  ]   Личеров:  0  |  0 KB/s  ]

* - сиды/пиры с внешних источников

   
 
Автор Сообщение

ARI71 Пол:Муж

25-Май-2016 18:21

Олег Даль - между прошлым и будущим


Год выпуска: 2011
Жанр: документальный, биография, кинематограф
Страна: Россия ООО "Зима Продакшн"
Режиссер: Ольга Горячева
Сюжет фильма:
Удивительно, но у Олега Даля не было ни званий, ни наград. Зато была и остаётся огромная любовь зрителей за его театральные работы и роли в таких картинах, как "Женя, Женечка и "Катюша"", "Старая, старая сказка", "Не может быть!", "Приключения принца Флоризеля", "Отпуск в сентябре"...Он срывал спектакли, отказывался от выгодных предложений. Но те роли, на которые соглашался, неизменно исполнялись им с ювелирной точностью. Его герои были странными, непонятными, ненужными, чужими людьми, как и он сам, который постоянно искал своё место в жизни. Но так и не смог его найти… Главная линия фильма – личная судьба знаменитого актёра. Семейные, человеческие, житейские подробности жизни Даля, о которых он и его близкие рассказывали редко или не рассказывали вообще. О жизни актёра вспоминают его близкие и коллеги: Ираида Крылова – сестра, Иосиф Райхельгауз – режиссёр, Валентин Гафт, Ирина Алфёрова, Ирина Печерникова, Светлана Крючкова, Ирина Купченко – артисты, Наталья Галаджева – кинокритик.

Оле́г Ива́нович Даль (25 мая 1941, Люблино, Московская область, — 3 марта 1981, Киев) — советский и российский актёр театра и кино. Автор стихотворений и театральных постановок.

Качество видео: SatRip

Продолжительность: 00:33:51
Формат: AVI
Видео: XviD, 704x400, ~1600 kbps
Аудио: русский, (оригинал), MP3 2.0, ~128.00 kbps

Код:

Общее
Полное имя : D:\О.Даль.Между прошлым и будущим.2011.SATRip.avi
Формат : AVI
Формат/Информация : Audio Video Interleave
Размер файла : 421 Мбайт
Продолжительность : 33 м.
Общий поток : 1738 Кбит/сек
Программа кодирования : VirtualDubMod 1.5.10.3 | www.virtualdub-fr.org || (build 2550/release)
Библиотека кодирования : VirtualDubMod build 2550/release

Видео
Идентификатор : 0
Формат : MPEG-4 Visual
Профиль формата : Advanced Simple@L5
Параметр BVOP формата : 2
Параметр QPel формата : Нет
Параметр GMC формата : Без точки перехода
Параметр матрицы формата : Default (MPEG)
Идентификатор кодека : XVID
Идентификатор кодека/Подсказка : XviD
Продолжительность : 33 м.
Битрейт : 1600 Кбит/сек
Ширина : 704 пикселя
Высота : 400 пикселей
Соотношение сторон : 16:9
Частота кадров : 25,000 кадров/сек
Цветовое пространство : YUV
Субдискретизация насыщенности : 4:2:0
Битовая глубина : 8 бит
Тип развёртки : Прогрессивная
Метод сжатия : С потерями
Бит/(Пиксели*Кадры) : 0.227
Размер потока : 387 Мбайт (92%)
Библиотека кодирования : XviD 73

Аудио
Идентификатор : 1
Формат : MPEG Audio
Версия формата : Version 1
Профиль формата : Layer 3
Режим : Joint stereo
Расширение режима : MS Stereo
Идентификатор кодека : 55
Идентификатор кодека/Подсказка : MP3
Продолжительность : 33 м.
Вид битрейта : Постоянный
Битрейт : 128 Кбит/сек
Каналы : 2 канала
Частота : 48,0 КГц
Метод сжатия : С потерями
Размер потока : 31,0 Мбайт (7%)
Выравнивание : Соединение по промежуткам
Продолжительность промежутка : 40 мс. (1,00 видеокадр)
Время предзагрузки промежутка : 504 мс.
Библиотека кодирования : LAME3.98.4
picpicpicpicpic
Для увеличения картинки щелкните мышкой по превью

Этот торрент недоступен для скачивания без регистрации, однако доступен по публичной magnet-ссылке (источники с публичных трекеров). Перед использованием ссылки прочтите, пожалуйста Пользовательское соглашение, а также как можно дольше оставайтесь на раздаче! Для того, чтобы скачать сам торрент-файл (который видит больше источников), а также для того, чтобы поблагодарить релизера, вам необходимо зарегистрироваться. Если регистрироваться лень - вы можете также попробовать скачать релиз по нашим партнерским ссылкам ниже.

[underverse.su].t66557.torrent
Трекер: Зарегистрирован   [ 25.05.2016 18:21 ]  

Статус: проверено (by makkol at 25.05.2016 22:25)
Поблагодарили: пока никто не поблагодарил...
Тип торрента: публичный - доступные источники с открытых трекеров: 
Размер: 421 MB (занимает 0,09 DVDR, для записи нужно 1 болванка DVDR/RW)
 
 

Яндекс.Метрика powered by Sphinx


В Н И М А Н И Е
Сайт не распространяет и не хранит электронные версии произведений, а лишь бесплатно и без коммерческой выгоды (не требуя взамен платы,
SMS и т.д.) предоставляет доступ к создаваемому пользователями каталогу ссылок на торрент-файлы, которые содержат только списки хеш-сумм.
Убедительная просьба с жалобами обращаться напрямую к пользователю, разместившему торрент файл.

Вверх