Loading...
Error

Осушить океан: Бермудский треугольник / Drain the Bermuda Triangle [2014 г., документальный, научно-познавательный, исследование, реконструкция, HDTVRip] VO

Статистика раздачи
Размер:  532 MB   |    Зарегистрирован:  6 месяцев   |    Скачан:  9 раз

Полного источника не было: 2 дня 5 часов

Сидов:  0  |  0 KB/s  ]   Личеров:  0  |  0 KB/s  ]

* - сиды/пиры с внешних источников

   
 
Автор Сообщение

ARI71 Пол:Муж

25-Май-2016 14:04

Осушить океан: Бермудский треугольник / Drain the Bermuda Triangle


Год выпуска: 2014
Жанр: документальный, научно-познавательный, исследование, реконструкция
Страна: США National Geographic Television, Mallinson Sadler Production
Режиссер: Криспин Сэдлер
Сюжет фильма:
Бермудский треугольник - это место уже давно привлекает к себе исследователей и искателей приключений. Существует множество разных версий о том, что там происходит, но никто еще не заглядывал так глубоко в его тайны. Пользуясь новейшими технологиями, исследователи "осушат" океан на экране компьютера, чтобы посмотреть поближе на загадки, которые лежат на дне.


Качество видео: HDTVRip

Продолжительность: 00:44:11
Формат: AVI
Видео: XviD, 720x400, ~1480 kbps
Аудио: русский, одноголосый закадровый (профессиональный) студия "Велес" Сергей Куприянов AC3 2.0, ~192.00 kbps

Код:

Общее
Полное имя : D:\Osushyt'.okean.2014.HDTVRip.[Один 777].avi
Формат : AVI
Формат/Информация : Audio Video Interleave
Размер файла : 532 Мбайт
Продолжительность : 44 м.
Общий поток : 1682 Кбит/сек
Программа кодирования : VirtualDubMod 1.5.10.3 | www.virtualdub-fr.org || (build 2550/release)
Библиотека кодирования : VirtualDubMod build 2550/release

Видео
Идентификатор : 0
Формат : MPEG-4 Visual
Профиль формата : Advanced Simple@L5
Параметр BVOP формата : 1
Параметр QPel формата : Нет
Параметр GMC формата : Без точки перехода
Параметр матрицы формата : Default (H.263)
Идентификатор кодека : XVID
Идентификатор кодека/Подсказка : XviD
Продолжительность : 44 м.
Битрейт : 1480 Кбит/сек
Ширина : 720 пикселей
Высота : 400 пикселей
Соотношение сторон : 16:9
Частота кадров : 25,000 кадров/сек
Цветовое пространство : YUV
Субдискретизация насыщенности : 4:2:0
Битовая глубина : 8 бит
Тип развёртки : Прогрессивная
Метод сжатия : С потерями
Бит/(Пиксели*Кадры) : 0.206
Размер потока : 468 Мбайт (88%)
Библиотека кодирования : XviD 73

Аудио
Идентификатор : 1
Формат : AC-3
Формат/Информация : Audio Coding 3
Расширение режима : CM (complete main)
Параметр Endianness формата : Big
Идентификатор кодека : 2000
Продолжительность : 44 м.
Вид битрейта : Постоянный
Битрейт : 192 Кбит/сек
Каналы : 2 канала
Расположение каналов : Front: L R
Частота : 48,0 КГц
Метод сжатия : С потерями
Размер потока : 60,7 Мбайт (11%)
Выравнивание : Разделение по промежуткам
Продолжительность промежутка : 40 мс. (1,00 видеокадр)
Время предзагрузки промежутка : 500 мс.
picpicpicpicpic
Для увеличения картинки щелкните мышкой по превью

Этот торрент недоступен для скачивания без регистрации, однако доступен по публичной magnet-ссылке (источники с публичных трекеров). Перед использованием ссылки прочтите, пожалуйста Пользовательское соглашение, а также как можно дольше оставайтесь на раздаче! Для того, чтобы скачать сам торрент-файл (который видит больше источников), а также для того, чтобы поблагодарить релизера, вам необходимо зарегистрироваться. Если регистрироваться лень - вы можете также попробовать скачать релиз по нашим партнерским ссылкам ниже.

[underverse.su].t66553.torrent
Трекер: Зарегистрирован   [ 25.05.2016 14:04 ]  

Статус: проверено (by матроскин at 26.05.2016 05:58)
Поблагодарили: пока никто не поблагодарил...
Тип торрента: публичный - доступные источники с открытых трекеров: 
Размер: 532 MB (занимает 0,12 DVDR, для записи нужно 1 болванка DVDR/RW)
 
 

Яндекс.Метрика powered by Sphinx


В Н И М А Н И Е
Сайт не распространяет и не хранит электронные версии произведений, а лишь бесплатно и без коммерческой выгоды (не требуя взамен платы,
SMS и т.д.) предоставляет доступ к создаваемому пользователями каталогу ссылок на торрент-файлы, которые содержат только списки хеш-сумм.
Убедительная просьба с жалобами обращаться напрямую к пользователю, разместившему торрент файл.

Вверх