Loading...
Error

Смертельное собеседование / Deadliest Job Interview (1 сезон: 1-6 серии из 6) [2016 г., документальный, научно-познавательный, HDTVRip] DVO

Статистика раздачи
Размер:  3,21 GB   |    Зарегистрирован:  6 месяцев   |    Скачан:  0 раз

Полного источника не было: 6 месяцев

Сидов:  0  |  0 KB/s  ]   Личеров:  0  |  0 KB/s  ]

* - сиды/пиры с внешних источников

   
 
Автор Сообщение

ARI71 Пол:Муж

25-Май-2016 09:23

Смертельное собеседование / Deadliest Job Interview (1 сезон: 1-6 серии из 6)


Год выпуска: 2016
Жанр: документальный, научно-познавательный
Страна: США Discovery Channel
Режиссер: Discovery
Сюжет фильма:
Взгляните на восемь смертельных собеседований, где кандидаты претендуют на крайне опасную работу. Вы познакомитесь с арбористами – людьми, которые взбираются на 70-метровые деревья, чтобы удалить старые ветки, пока те не обрушились кому-нибудь на голову. Пилоты легкомоторных самолетов будут совершать фигуры высшего пилотажа над саванной в Южной Африке. Не легче приходится и дальнобойщикам, которые водят сверхтяжелые грузовики через всю Америку. Стать высотным сварщиком настолько же непросто, как, в прочем, и промышленным водолазом. Ставки в этих и других смертельно опасных профессиях очень высоки – ведь на кону не только зарплата, но и жизнь.


Качество видео: HDTVRip

Продолжительность: 6 х ~ 00:44:00
Формат: AVI
Видео: XviD, 720x400, ~1540 kbps
Аудио: русский, двухголосый (профессиональный), AC3 2.0, ~192.00 kbps
(тех. данные всех серий идентичны)
01. Всё или ничего.
02. Полное погружение.
03. Серьёзная ошибка.
04. С риском для жизни.
05. Слишком глубоко.
06. Последний кадр.

Код:

Общее
Полное имя : D:\Смертельное собеседование GeneralFilm\01 Смертельное собеседование GeneralFilm.avi
Формат : AVI
Формат/Информация : Audio Video Interleave
Размер файла : 546 Мбайт
Продолжительность : 43 м.
Общий поток : 1743 Кбит/сек
Программа кодирования : VirtualDubMod 1.5.10.3 | www.virtualdub-fr.org || (build 2550/release)
Библиотека кодирования : VirtualDubMod build 2550/release

Видео
Идентификатор : 0
Формат : MPEG-4 Visual
Профиль формата : Advanced Simple@L5
Параметр BVOP формата : 1
Параметр QPel формата : Нет
Параметр GMC формата : Без точки перехода
Параметр матрицы формата : Выборочная
Идентификатор кодека : XVID
Идентификатор кодека/Подсказка : XviD
Продолжительность : 43 м.
Битрейт : 1540 Кбит/сек
Ширина : 720 пикселей
Высота : 400 пикселей
Соотношение сторон : 16:9
Частота кадров : 30,000 кадров/сек
Цветовое пространство : YUV
Субдискретизация насыщенности : 4:2:0
Битовая глубина : 8 бит
Тип развёртки : Прогрессивная
Метод сжатия : С потерями
Бит/(Пиксели*Кадры) : 0.178
Размер потока : 482 Мбайт (88%)
Библиотека кодирования : XviD 73

Аудио
Идентификатор : 1
Формат : AC-3
Формат/Информация : Audio Coding 3
Расширение режима : CM (complete main)
Параметр Endianness формата : Big
Идентификатор кодека : 2000
Продолжительность : 43 м.
Вид битрейта : Постоянный
Битрейт : 192 Кбит/сек
Каналы : 2 канала
Расположение каналов : Front: L R
Частота : 48,0 КГц
Метод сжатия : С потерями
Размер потока : 60,2 Мбайт (11%)
Выравнивание : Разделение по промежуткам
Продолжительность промежутка : 33 мс. (1,00 видеокадр)
Время предзагрузки промежутка : 500 мс.
picpicpicpicpic
Для увеличения картинки щелкните мышкой по превью

Этот торрент недоступен для скачивания без регистрации, однако доступен по публичной magnet-ссылке (источники с публичных трекеров). Перед использованием ссылки прочтите, пожалуйста Пользовательское соглашение, а также как можно дольше оставайтесь на раздаче! Для того, чтобы скачать сам торрент-файл (который видит больше источников), а также для того, чтобы поблагодарить релизера, вам необходимо зарегистрироваться. Если регистрироваться лень - вы можете также попробовать скачать релиз по нашим партнерским ссылкам ниже.

[underverse.su].t66883.torrent
Трекер: Зарегистрирован   [ 07.06.2016 08:40 ]  

Статус: проверено (by makkol at 08.06.2016 13:50)
Поблагодарили: пока никто не поблагодарил...
Тип торрента: публичный - доступные источники с открытых трекеров: 
Размер: 3,21 GB (занимает 0,73 DVDR, для записи нужно 1 болванка DVDR/RW)
 
 
Похожие темы
Форум Тема Автор Торрент Отв. Посл. сооб.
Зарубежное кино [DVDRip, Low-Res HDRip, и т.д.] Смертельное Искушение / Lethal Seduction (Нэнси Леопарди) [2015 г., триллер, WEB-DLRip] MVO makkol
0 | 0

0 | 377

5

15.09.2016 13:46

Зарубежное кино [DVDRip, Low-Res HDRip, и т.д.] Смертельное оскорбление / The Killing Jar (Марк Янг) [2010 г., драма, DVDRip] STALKOID
0 | 0

2 | 607

6

20.12.2012 00:20

Зарубежное кино [DVDRip, Low-Res HDRip, и т.д.] Смертельное падение / Dead Drop (Р. Эллис Фрэзиер) [2013 г., боевик, триллер, драма, криминал, детектив, HDRip] MVO Паукан
10 | 0

0 | 669

27

27.05.2015 12:01

T Зарубежное кино [DVDRip, Low-Res HDRip, и т.д.] Смертельное напряжение / Deadly Voltage (Джон Л’Экуаер / John L'Ecuyer) [2016 г., драма, HDRip] MVO (Parovoz Production) 90ytr90
29 | 3

0 | 482

5

17.08.2016 18:44

Зарубежное кино HQ Смертельное оружие 2 / Lethal Weapon 2 (Ричард Доннер) [1989 г., боевик, триллер, криминал, BDRip] Паукан
0 | 0

3 | 1117

2

06.05.2009 12:40

Зарубежное кино [HDDVDRip / BDRip / WEB-DL / HDTV 1080/720р] Смертельное Искушение / Lethal Seduction (Нэнси Леопарди) [2015 г., триллер, WEB-DL 720p] MVO makkol
6 | 0

0 | 341

9

15.09.2016 13:53

T Зарубежное кино [HDDVDRip / BDRip / WEB-DL / HDTV 1080/720р] Смертельное напряжение / Deadly Voltage (Джон Л’Экуаер) [2015 г., драма, BDRip 720p] MVO makkol
0 | 0

0 | 271

4

17.08.2016 22:39

Архив Смертельное оружие / Lethal Weapon (Ричард Доннер) [1987 г., Боевик, триллер, криминал, BDRip] Паукан
0 | 0

5 | 2537

6

03.03.2013 16:37



Последний раз редактировалось: ARI71 (07.06.2016 08:45), всего редактировалось 5 раз(а)

ARI71 Пол:Муж

25-Май-2016 09:24

Добавлена 6-я последняя серия данного релиза. Обновите торрент-файл

Яндекс.Метрика powered by Sphinx


В Н И М А Н И Е
Сайт не распространяет и не хранит электронные версии произведений, а лишь бесплатно и без коммерческой выгоды (не требуя взамен платы,
SMS и т.д.) предоставляет доступ к создаваемому пользователями каталогу ссылок на торрент-файлы, которые содержат только списки хеш-сумм.
Убедительная просьба с жалобами обращаться напрямую к пользователю, разместившему торрент файл.

Вверх