Loading...
Error

Поездка налегке / Free Ride (1-6 серии из 6) [2016 г., документальный, приключения, экстрим, HDTVRip] DVO

Статистика раздачи
Размер:  3,19 GB   |    Зарегистрирован:  6 месяцев   |    Скачан:  1 раз

Полного источника не было: 2 месяца

Сидов:  0  |  0 KB/s  ]   Личеров:  0  |  0 KB/s  ]

* - сиды/пиры с внешних источников

   
 
Автор Сообщение

ARI71 Пол:Муж

25-Май-2016 07:52

Поездка налегке / Free Ride (1-6 серии из 6)


Год выпуска: 2016
Жанр: документальный, приключения, экстрим
Страна: США Discovery Channel
В ролях: Роб Гринфилд, Джеймс Левелл
Сюжет фильма:
Многие считают, что деньги правят миром, но эколог-экстремал Роб Гринфилд собирается доказать, что человеческая доброта и взаимовыручка дороже любых денег. Вместе с режиссером-документалистом Джеймсом Левеллом он ставит невероятный эксперимент: его цель – преодолеть 9000 километров от Бразилии до Панамы без единого цента в кармане. Никаких денег, никаких кредитных карт – только вера в себя и в незнакомых людей, которые встретятся на этом долгом пути.
Качество видео: HDTVRip

Продолжительность: 6 х ~ 00:44:00
Формат: AVI
Видео: XviD, 720x400, ~1538 kbps
Аудио: русский, двухголосый (профессиональный), AC3 2.0, ~192.00 kbps
(тех. данные всех серий идентичны)

Код:

Общее
Полное имя : D:\Поездка налегке GeneralFilm\01 Поездка налегке.avi
Формат : AVI
Формат/Информация : Audio Video Interleave
Размер файла : 544 Мбайт
Продолжительность : 43 м.
Общий поток : 1742 Кбит/сек
Программа кодирования : VirtualDubMod 1.5.10.3 | www.virtualdub-fr.org || (build 2550/release)
Библиотека кодирования : VirtualDubMod build 2550/release

Видео
Идентификатор : 0
Формат : MPEG-4 Visual
Профиль формата : Advanced Simple@L5
Параметр BVOP формата : 1
Параметр QPel формата : Нет
Параметр GMC формата : Без точки перехода
Параметр матрицы формата : Выборочная
Идентификатор кодека : XVID
Идентификатор кодека/Подсказка : XviD
Продолжительность : 43 м.
Битрейт : 1538 Кбит/сек
Ширина : 720 пикселей
Высота : 400 пикселей
Соотношение сторон : 16:9
Частота кадров : 30,000 кадров/сек
Цветовое пространство : YUV
Субдискретизация насыщенности : 4:2:0
Битовая глубина : 8 бит
Тип развёртки : Прогрессивная
Метод сжатия : С потерями
Бит/(Пиксели*Кадры) : 0.178
Размер потока : 480 Мбайт (88%)
Библиотека кодирования : XviD 73

Аудио
Идентификатор : 1
Формат : AC-3
Формат/Информация : Audio Coding 3
Расширение режима : CM (complete main)
Параметр Endianness формата : Big
Идентификатор кодека : 2000
Продолжительность : 43 м.
Вид битрейта : Постоянный
Битрейт : 192 Кбит/сек
Каналы : 2 канала
Расположение каналов : Front: L R
Частота : 48,0 КГц
Метод сжатия : С потерями
Размер потока : 60,0 Мбайт (11%)
Выравнивание : Разделение по промежуткам
Продолжительность промежутка : 33 мс. (1,00 видеокадр)
Время предзагрузки промежутка : 500 мс.
picpicpicpicpic
Для увеличения картинки щелкните мышкой по превью

Этот торрент недоступен для скачивания без регистрации, однако доступен по публичной magnet-ссылке (источники с публичных трекеров). Перед использованием ссылки прочтите, пожалуйста Пользовательское соглашение, а также как можно дольше оставайтесь на раздаче! Для того, чтобы скачать сам торрент-файл (который видит больше источников), а также для того, чтобы поблагодарить релизера, вам необходимо зарегистрироваться. Если регистрироваться лень - вы можете также попробовать скачать релиз по нашим партнерским ссылкам ниже.

[underverse.su].t66873.torrent
Трекер: Зарегистрирован   [ 06.06.2016 16:52 ]  

Статус: проверено (by makkol at 08.06.2016 13:49)
Поблагодарили: пока никто не поблагодарил...
Тип торрента: публичный - доступные источники с открытых трекеров: 
Размер: 3,19 GB (занимает 0,73 DVDR, для записи нужно 1 болванка DVDR/RW)
 
 
Похожие темы
Форум Тема Автор Торрент Отв. Посл. сооб.
Зарубежное кино [DVDRip, Low-Res HDRip, и т.д.] Поездка на возу 2 / Hayride 2 (Terron R. Parsons) [2015 г., ужасы, боевик, триллер, WEB-DLRip] DVO (DeadSno & den904) + Original (Eng) 90ytr90
105 | 6

0 | 566

15

09.03.2015 18:19

Discovery Поездка налегке / Free Ride [2016 г., документальный, приключения, HDTV 1080i] DVO ARI71
1 | 0

0 | 360

2

08.06.2016 13:07



Последний раз редактировалось: ARI71 (06.06.2016 16:54), всего редактировалось 3 раз(а)

ARI71 Пол:Муж

25-Май-2016 08:52

Добавлены последние 5-я и 6-я серии данного сериала. Обновите торрент-файл! Приятного всем просмотра!

Яндекс.Метрика powered by Sphinx


В Н И М А Н И Е
Сайт не распространяет и не хранит электронные версии произведений, а лишь бесплатно и без коммерческой выгоды (не требуя взамен платы,
SMS и т.д.) предоставляет доступ к создаваемому пользователями каталогу ссылок на торрент-файлы, которые содержат только списки хеш-сумм.
Убедительная просьба с жалобами обращаться напрямую к пользователю, разместившему торрент файл.

Вверх