Loading...
Error

Жизнь с тиграми / Tiger Man of Africa (1 сезон: 3 серии из 3) [2011 г., документальный, фауна, HDTVRip] VO

Статистика раздачи
Размер:  2,17 GB   |    Зарегистрирован:  6 месяцев   |    Скачан:  1 раз

Полного источника не было: 25 дней

Сидов:  0  |  0 KB/s  ]   Личеров:  0  |  0 KB/s  ]

* - сиды/пиры с внешних источников

   
 
Автор Сообщение

ARI71 Пол:Муж

23-Май-2016 11:52

Жизнь с тиграми / Tiger Man of Africa (1 сезон: 3 серии из 3)


Год выпуска: 2011
Жанр: документальный, фауна
Страна: США Creative Differences Productions, National Geographic Channel
Режиссер: Джон Варти
В ролях: Джон Варти
Сюжет фильма:
В тигриных каньонах, затерявшихся среди диких просторов Южной Африки натуралист и кинооператор Джон Варти день за днем в одиночку следит за жизнью грозных хищников - тигров, пытаясь самостоятельно помочь этим большим кошкам.


Качество видео: HDTVRip

Продолжительность: 3 х ~ 00:45:00
Формат: AVI
Видео: XviD, 720x400, ~2128 kbps
Аудио: русский, одноголосый (профессиональный), AC3 2.0, ~192.00 kbps
(тех. данные всех серий идентичны)
Серия 1: Брачные игры
Успех попытки Джона Варти основать популяцию тигров в ЮАР зависит от того, будет ли его первоначальная пара спариваться с двумя новичками.

Серия 2: Первые шаги
Две тигрицы заповедника рожают детенышей, один из которых - редкий белый тигр. Но у одной из молодых мам нет материнского инстинкта.

Серия 3: Трудности роста
В прошлый раз тигрица Джули бросила своих детенышей, но сейчас она вновь становится мамой. Джон надеется, что на этот раз она справится лучше.

Код:

Общее
Полное имя : D:\Tiger Man of Africa\Tiger.Man.of.Africa.S01E01.avi
Формат : AVI
Формат/Информация : Audio Video Interleave
Размер файла : 750 Мбайт
Продолжительность : 45 м.
Общий поток : 2330 Кбит/сек
Программа кодирования : VirtualDubModRus 1.5.10.2 (build 2542/release)
Библиотека кодирования : VirtualDub build 24442/release

Видео
Идентификатор : 0
Формат : MPEG-4 Visual
Профиль формата : Advanced Simple@L5
Параметр BVOP формата : 2
Параметр QPel формата : Нет
Параметр GMC формата : Без точки перехода
Параметр матрицы формата : Default (MPEG)
Режим смешивания : Сжатый битовый поток
Идентификатор кодека : XVID
Идентификатор кодека/Подсказка : XviD
Продолжительность : 45 м.
Битрейт : 2128 Кбит/сек
Ширина : 720 пикселей
Высота : 400 пикселей
Соотношение сторон : 16:9
Частота кадров : 25,000 кадров/сек
Цветовое пространство : YUV
Субдискретизация насыщенности : 4:2:0
Битовая глубина : 8 бит
Тип развёртки : Прогрессивная
Метод сжатия : С потерями
Бит/(Пиксели*Кадры) : 0.296
Размер потока : 685 Мбайт (91%)
Библиотека кодирования : XviD 1.2.1 (UTC 2008-12-04)

Аудио
Идентификатор : 1
Формат : AC-3
Формат/Информация : Audio Coding 3
Расширение режима : CM (complete main)
Параметр Endianness формата : Big
Идентификатор кодека : 2000
Продолжительность : 44 м.
Вид битрейта : Постоянный
Битрейт : 192 Кбит/сек
Каналы : 2 канала
Расположение каналов : Front: L R
Частота : 48,0 КГц
Метод сжатия : С потерями
Размер потока : 61,8 Мбайт (8%)
Выравнивание : Разделение по промежуткам
Продолжительность промежутка : 40 мс. (1,00 видеокадр)
Время предзагрузки промежутка : 500 мс.
picpicpicpicpic
Для увеличения картинки щелкните мышкой по превью

Этот торрент недоступен для скачивания без регистрации, однако доступен по публичной magnet-ссылке (источники с публичных трекеров). Перед использованием ссылки прочтите, пожалуйста Пользовательское соглашение, а также как можно дольше оставайтесь на раздаче! Для того, чтобы скачать сам торрент-файл (который видит больше источников), а также для того, чтобы поблагодарить релизера, вам необходимо зарегистрироваться. Если регистрироваться лень - вы можете также попробовать скачать релиз по нашим партнерским ссылкам ниже.

[underverse.su].t66487.torrent
Трекер: Зарегистрирован   [ 23.05.2016 11:52 ]  

Статус: проверено (by 90ytr90 at 23.05.2016 12:46)
Поблагодарили: пока никто не поблагодарил...
Тип торрента: публичный - доступные источники с открытых трекеров: 
Размер: 2,17 GB (занимает 1/2 DVDR, для записи нужно 1 болванка DVDR/RW)
 
 

Яндекс.Метрика powered by Sphinx


В Н И М А Н И Е
Сайт не распространяет и не хранит электронные версии произведений, а лишь бесплатно и без коммерческой выгоды (не требуя взамен платы,
SMS и т.д.) предоставляет доступ к создаваемому пользователями каталогу ссылок на торрент-файлы, которые содержат только списки хеш-сумм.
Убедительная просьба с жалобами обращаться напрямую к пользователю, разместившему торрент файл.

Вверх