Loading...
Error

Манхэттенская ночь / Manhattan Night (Брайан ДеКьюбелис) [2016 г., триллер, драма, криминал, детектив, WEB-DLRip] MVO

Статистика раздачи
Размер:  1,37 GB   |    Зарегистрирован:  6 месяцев   |    Скачан:  12 раз
Сидов:  1  |  0 KB/s  ]   Личеров:  0  |  0 KB/s  ]

* - сиды/пиры с внешних источников

   
 
Автор Сообщение

makkol Пол:Муж

22-Май-2016 22:16

Манхэттенская ночь / Manhattan Night


Год выпуска: 2016
Жанр: триллер, драма, криминал, детектив
Производство: США [DeCubellis Films, Untravelled Worlds, Fable House]
Режиссер: Брайан ДеКьюбелис
В ролях: Эдриан Броуди, Ивонн Страховски, Дженнифер Билз, Кэмпбелл Скотт, Стивен Беркофф, Линда Лавин, Кевин Брезнахан, Амели МакКендри, Томас Баир, Мэдисон Элизабет Лахарес
Сюжет фильма:
С просьбы соблазнительной незнакомки разобраться в нераскрытом убийстве ее мужа начинается неприятная история сексуальной одержимости и шантажа, которая может стоить журналисту Портеру Рену его работы, семьи и даже жизни.

  • Мировая премьера: 20 мая 2016


Качество видео: WEB-DLRip

Продолжительность: 01:31:50
Формат: AVI
Видео: XviD, 720x304 (2.35:1), 23.976 fps, 1310 kbps
Аудио: русский, любительский многоголосый закадровый, AC3 2.0, 48 kHz, 384 kbps

Код:

Формат                                   : AVI
Формат/Информация                        : Audio Video Interleave
Размер файла                             : 1,36 Гбайт
Продолжительность                        : 1 ч. 54 м.
Общий поток                              : 1704 Кбит/сек
Программа кодирования                    : VirtualDubMod 1.5.10.2 (build 2542/release)
Библиотека кодирования                   : VirtualDubMod build 2542/release

Видео
Идентификатор                            : 0
Формат                                   : MPEG-4 Visual
Профиль формата                          : Advanced Simple@L5
Параметр BVOP формата                    : 2
Параметр QPel формата                    : Нет
Параметр GMC формата                     : Без точки перехода
Параметр матрицы формата                 : Выборочная
Идентификатор кодека                     : XVID
Идентификатор кодека/Подсказка           : XviD
Продолжительность                        : 1 ч. 54 м.
Битрейт                                  : 1310 Кбит/сек
Ширина                                   : 720 пикселей
Высота                                   : 304 пикселя
Соотношение сторон                       : 2,35:1
Частота кадров                           : 23,976 кадра/сек
Цветовое пространство                    : YUV
Субдискретизация насыщенности            : 4:2:0
Битовая глубина                          : 8 бит
Тип развёртки                            : Прогрессивная
Метод сжатия                             : С потерями
Бит/(Пиксели*Кадры)                      : 0.250
Размер потока                            : 1,04 Гбайт (77%)
Библиотека кодирования                   : XviD 1.2.1 (UTC 2008-12-04)

Аудио
Идентификатор                            : 1
Формат                                   : AC-3
Формат/Информация                        : Audio Coding 3
Расширение режима                        : CM (complete main)
Параметр Endianness формата              : Big
Идентификатор кодека                     : 2000
Продолжительность                        : 1 ч. 54 м.
Вид битрейта                             : Постоянный
Битрейт                                  : 384 Кбит/сек
Каналы                                   : 2 канала
Расположение каналов                     : Front: L R
Частота                                  : 48,0 КГц
Битовая глубина                          : 16 бит
Метод сжатия                             : С потерями
Задержка видео                           : 4 мс.
Размер потока                            : 313 Мбайт (23%)
Выравнивание                             : Разделение по промежуткам
Продолжительность промежутка             : 42  мс. (1,00 видеокадр)
Время предзагрузки промежутка            : 500  мс.
Присутствует реклама


picpicpicpicpic
Для увеличения картинки щелкните мышкой по превью

Этот торрент недоступен для скачивания без регистрации, однако доступен по публичной magnet-ссылке (источники с публичных трекеров). Перед использованием ссылки прочтите, пожалуйста Пользовательское соглашение, а также как можно дольше оставайтесь на раздаче! Для того, чтобы скачать сам торрент-файл (который видит больше источников), а также для того, чтобы поблагодарить релизера, вам необходимо зарегистрироваться. Если регистрироваться лень - вы можете также попробовать скачать релиз по нашим партнерским ссылкам ниже.

[underverse.su].t66435.torrent
Трекер: Зарегистрирован   [ 22.05.2016 22:16 ]  

Статус: T временная (by Паукан at 23.05.2016 04:13)
Поблагодарили: пока никто не поблагодарил...
Тип торрента: публичный - доступные источники с открытых трекеров: 
Размер: 1,37 GB (занимает 0,31 DVDR, для записи нужно 1 болванка DVDR/RW)
 
 
Похожие темы
Форум Тема Автор Торрент Отв. Посл. сооб.
Зарубежное кино [DVDRip, Low-Res HDRip, и т.д.] Манхэттенская ночь / Manhattan Night (Брайан ДеКьюбелис / Brian DeCubellis) [2016 г., триллер, драма, криминал, детектив, WEB-DLRip] MVO (Parovoz Production) 90ytr90
67 | 1

0 | 468

10

23.05.2016 12:18

Зарубежное кино [DVDRip, Low-Res HDRip, и т.д.] Манхэттенская ночь / Manhattan Night (Брайан ДеКьюбелис / Brian DeCubellis) [2016 г., триллер, драма, криминал, детектив, WEB-DLRip] MVO (Parovoz Production) + Original (Eng) + Sub (Eng) 90ytr90
31 | 0

0 | 1351

11

24.05.2016 05:42

T Зарубежное кино [HDDVDRip / BDRip / WEB-DL / HDTV 1080/720р] Манхэттенская ночь / Manhattan Night (Брайан ДеКьюбелис) [2016 г., триллер, драма, криминал, детектив, WEB-DL 720p] MVO + Original makkol
4 | 0

0 | 404

1

22.05.2016 22:26

T Зарубежное кино [HDDVDRip / BDRip / WEB-DL / HDTV 1080/720р] Манхэттенская ночь / Manhattan Night (Брайан ДеКьюбелис) [2016 г., триллер, драма, криминал, детектив, WEB-DL 1080p] MVO + Original makkol
0 | 0

0 | 493

10

22.05.2016 22:34

Зарубежное кино [HDDVDRip / BDRip / WEB-DL / HDTV 1080/720р] Манхэттенская ночь / Manhattan Night (Брайан ДеКьюбелис / Brian DeCubellis) [2016 г., триллер, драма, криминал, детектив, WEB-DL 720p] MVO (Parovoz Production) + Original (Eng) + Sub (Eng) 90ytr90
56 | 3

0 | 428

7

23.05.2016 12:24

Зарубежное кино [HDDVDRip / BDRip / WEB-DL / HDTV 1080/720р] Манхэттенская ночь / Manhattan Night (Брайан ДеКьюбелис / Brian DeCubellis) [2016 г., триллер, драма, криминал, детектив, WEB-DL 1080p] MVO (Parovoz Production) + Original (Eng) + Sub (Eng) 90ytr90
6 | 0

0 | 1422

12

23.05.2016 20:50


Яндекс.Метрика powered by Sphinx


В Н И М А Н И Е
Сайт не распространяет и не хранит электронные версии произведений, а лишь бесплатно и без коммерческой выгоды (не требуя взамен платы,
SMS и т.д.) предоставляет доступ к создаваемому пользователями каталогу ссылок на торрент-файлы, которые содержат только списки хеш-сумм.
Убедительная просьба с жалобами обращаться напрямую к пользователю, разместившему торрент файл.

Вверх