Loading...
Error

Эрнст Хейнкель - Мечта о полете / Ernst Heinkel - The Dream Of Flying [2008 г., документальный, авиация, история, биография, SatRip] VO

Статистика раздачи
Размер:  449 MB   |    Зарегистрирован:  6 месяцев   |    Скачан:  0 раз

Полного источника не было: 6 месяцев

Сидов:  0  |  0 KB/s  ]   Личеров:  0  |  0 KB/s  ]

* - сиды/пиры с внешних источников

   
 
Автор Сообщение

ARI71 Пол:Муж

21-Май-2016 20:47

Эрнст Хейнкель - Мечта о полете / Ernst Heinkel - The Dream Of Flying


Год выпуска: 2008
Жанр: документальный, авиация, история, биография
Страна: Германия
Режиссер: Ёрг Герман
Сюжет фильма:
Эра пионеров авиации началась с таких выдающихся изобретателей, как Отто Лилиенталь и братья Райт. Менее знаменитым, но не менее значительным авиаконструктором авиа-строителем был Эрнст Хейнкель. Многие изобретения Хейнкеля, например, реактивный двигатель и катапульта, убирающиеся шасси и самый быстрый в мире самолет, послужили развитию современной авиации.

Эрнст Хейнкель (нем. Ernst (Heinrich) Heinkel; 24 января 1888, Грунбах — 30 января 1958, Штутгарт) — немецкий авиаконструктор, основатель фирмы Heinkel.
Качество видео: SatRip

Продолжительность: 00:43:49
Формат: AVI
Видео: XviD, 704x400, ~1232 kbps
Аудио: русский, одноголосый закадровый (профессиональный), AC3 2.0, ~192.00 kbps

Код:

Общее
Полное имя : D:\Ernst.Hejnkel'.2008.SATRip.[Один 777].avi
Формат : AVI
Формат/Информация : Audio Video Interleave
Размер файла : 449 Мбайт
Продолжительность : 43 м.
Общий поток : 1434 Кбит/сек
Программа кодирования : VirtualDubMod 1.5.10.3 | www.virtualdub-fr.org || (build 2550/release)
Библиотека кодирования : VirtualDubMod build 2550/release

Видео
Идентификатор : 0
Формат : MPEG-4 Visual
Профиль формата : Advanced Simple@L5
Параметр BVOP формата : 1
Параметр QPel формата : Нет
Параметр GMC формата : Без точки перехода
Параметр матрицы формата : Default (H.263)
Идентификатор кодека : XVID
Идентификатор кодека/Подсказка : XviD
Продолжительность : 43 м.
Битрейт : 1232 Кбит/сек
Ширина : 704 пикселя
Высота : 400 пикселей
Соотношение сторон : 16:9
Частота кадров : 25,000 кадров/сек
Цветовое пространство : YUV
Субдискретизация насыщенности : 4:2:0
Битовая глубина : 8 бит
Тип развёртки : Прогрессивная
Метод сжатия : С потерями
Бит/(Пиксели*Кадры) : 0.175
Размер потока : 386 Мбайт (86%)
Библиотека кодирования : XviD 73

Аудио
Идентификатор : 1
Формат : AC-3
Формат/Информация : Audio Coding 3
Расширение режима : CM (complete main)
Параметр Endianness формата : Big
Идентификатор кодека : 2000
Продолжительность : 43 м.
Вид битрейта : Постоянный
Битрейт : 192 Кбит/сек
Каналы : 2 канала
Расположение каналов : Front: L R
Частота : 48,0 КГц
Метод сжатия : С потерями
Размер потока : 60,2 Мбайт (13%)
Выравнивание : Разделение по промежуткам
Продолжительность промежутка : 40 мс. (1,00 видеокадр)
Время предзагрузки промежутка : 500 мс.
picpicpicpicpic
Для увеличения картинки щелкните мышкой по превью

Этот торрент недоступен для скачивания без регистрации, однако доступен по публичной magnet-ссылке (источники с публичных трекеров). Перед использованием ссылки прочтите, пожалуйста Пользовательское соглашение, а также как можно дольше оставайтесь на раздаче! Для того, чтобы скачать сам торрент-файл (который видит больше источников), а также для того, чтобы поблагодарить релизера, вам необходимо зарегистрироваться. Если регистрироваться лень - вы можете также попробовать скачать релиз по нашим партнерским ссылкам ниже.

[underverse.su].t66422.torrent
Трекер: Зарегистрирован   [ 21.05.2016 20:47 ]  

Статус: проверено (by makkol at 21.05.2016 22:28)
Поблагодарили: пока никто не поблагодарил...
Тип торрента: публичный - доступные источники с открытых трекеров: 
Размер: 449 MB (занимает 0,1 DVDR, для записи нужно 1 болванка DVDR/RW)
 
 
Похожие темы
Форум Тема Автор Торрент Отв. Посл. сооб.
* Архив Эрнст Хейнкель. Мечта о полете / Ernst Heinkel - The Dream Of Flying [ 2008 г., документальный, TVRip] NMZ

1 | 794

30.08.2010 00:06


Яндекс.Метрика powered by Sphinx


В Н И М А Н И Е
Сайт не распространяет и не хранит электронные версии произведений, а лишь бесплатно и без коммерческой выгоды (не требуя взамен платы,
SMS и т.д.) предоставляет доступ к создаваемому пользователями каталогу ссылок на торрент-файлы, которые содержат только списки хеш-сумм.
Убедительная просьба с жалобами обращаться напрямую к пользователю, разместившему торрент файл.

Вверх