Loading...
Error

Боги Египта / Gods of Egypt (Алекс Пройас) [2016 г., фэнтези, приключения, боевик, HDRip] Dub

Статистика раздачи
Размер:  2,05 GB   |    Зарегистрирован:  6 месяцев   |    Скачан:  25 раз
Сидов:  1  |  0 KB/s  ]   Личеров:  1  |  0 KB/s  ]

* - сиды/пиры с внешних источников

   
 
Автор Сообщение

makkol Пол:Муж

21-Май-2016 14:10

Боги Египта / Gods of Egypt
«Когда бьются боги, что могут сделать люди?..»

Год выпуска: 2016
Жанр: фэнтези, приключения, боевик
Производство: США [Mystery Clock Cinema, Pyramania, Summit Entertainment, Thunder Road]
Режиссер: Алекс Пройас
В ролях: Кортни Итон, Джерард Батлер, Николай Костер-Валдау, Руфус Сьюэлл, Джеффри Раш, Элоди Юнг, Брентон Туэйтс, Эбби Ли, Чэдвик Боузмэн, Брюс Спенс
Сюжет фильма:
Некогда мирное и процветающее египетское царство погружается в хаос: беспощадный бог тьмы Сет убивает своего брата Осириса и узурпирует трон. Вызов ему неожиданно бросает простой смертный, находчивый молодой вор. Чтобы вернуть к жизни свою прекрасную возлюбленную, ему приходится заручиться поддержкой могущественного и мстительного бога Гора. Лишь выдержав испытание на прочность и принеся в жертву все самое дорогое, им удастся противостоять Сету и его приспешникам в мире живых и мире мертвых.

  • Мировая премьера: 24 февраля 2016
  • Российская премьера: 25 февраля 2016


Качество видео: HDRip

Продолжительность: 02:06:50
Формат: AVI
Видео: XviD, 720x304 (2.35:1), 23.976 fps, 1856 kbps
Аудио: русский, дублированный (лицензия), AC3 5.1, 48 kHz, 448 kbps

Код:

Формат                                   : AVI
Формат/Информация                        : Audio Video Interleave
Профиль формата                          : OpenDML
Размер файла                             : 2,05 Гбайт
Продолжительность                        : 2 ч. 7 м.
Общий поток                              : 2316 Кбит/сек
Программа кодирования                    : VirtualDubMod 1.5.10.3 | www.virtualdub-fr.org || (build 2550/release)
Библиотека кодирования                   : VirtualDubMod build 2550/release

Видео
Идентификатор                            : 0
Формат                                   : MPEG-4 Visual
Профиль формата                          : Advanced Simple@L5
Параметр BVOP формата                    : 3
Параметр QPel формата                    : Нет
Параметр GMC формата                     : Без точки перехода
Параметр матрицы формата                 : Default (H.263)
Идентификатор кодека                     : XVID
Идентификатор кодека/Подсказка           : XviD
Продолжительность                        : 2 ч. 7 м.
Битрейт                                  : 1856 Кбит/сек
Ширина                                   : 720 пикселей
Высота                                   : 304 пикселя
Соотношение сторон                       : 2,35:1
Частота кадров                           : 23,976 кадра/сек
Цветовое пространство                    : YUV
Субдискретизация насыщенности            : 4:2:0
Битовая глубина                          : 8 бит
Тип развёртки                            : Прогрессивная
Метод сжатия                             : С потерями
Бит/(Пиксели*Кадры)                      : 0.354
Размер потока                            : 1,65 Гбайт (80%)
Библиотека кодирования                   : XviD 1.2.1 (UTC 2008-12-04)

Аудио
Идентификатор                            : 1
Формат                                   : AC-3
Формат/Информация                        : Audio Coding 3
Расширение режима                        : CM (complete main)
Параметр Endianness формата              : Big
Идентификатор кодека                     : 2000
Продолжительность                        : 2 ч. 7 м.
Вид битрейта                             : Постоянный
Битрейт                                  : 448 Кбит/сек
Каналы                                   : 6 каналов
Расположение каналов                     : Front: L C R, Side: L R, LFE
Частота                                  : 48,0 КГц
Битовая глубина                          : 16 бит
Метод сжатия                             : С потерями
Размер потока                            : 407 Мбайт (19%)
Выравнивание                             : Разделение по промежуткам
Продолжительность промежутка             : 42  мс. (1,00 видеокадр)
Время предзагрузки промежутка            : 500  мс.
picpicpicpicpic
Для увеличения картинки щелкните мышкой по превью

Этот торрент недоступен для скачивания без регистрации, однако доступен по публичной magnet-ссылке (источники с публичных трекеров). Перед использованием ссылки прочтите, пожалуйста Пользовательское соглашение, а также как можно дольше оставайтесь на раздаче! Для того, чтобы скачать сам торрент-файл (который видит больше источников), а также для того, чтобы поблагодарить релизера, вам необходимо зарегистрироваться. Если регистрироваться лень - вы можете также попробовать скачать релиз по нашим партнерским ссылкам ниже.

[underverse.su].t66419.torrent
Трекер: Зарегистрирован   [ 21.05.2016 14:10 ]  

Статус: проверено (by Паукан at 23.05.2016 04:18)
Поблагодарили: пока никто не поблагодарил...
Тип торрента: публичный - доступные источники с открытых трекеров: 
Размер: 2,05 GB (занимает 0,47 DVDR, для записи нужно 1 болванка DVDR/RW)
 
 
Похожие темы
Форум Тема Автор Торрент Отв. Посл. сооб.
Зарубежное кино [DVDRip, Low-Res HDRip, и т.д.] Боги Египта / Gods of Egypt (Алекс Пройас / Alex Proyas) [2016 г., фэнтези, боевик, приключения, HDRip] Dub 90ytr90
960 | 7

0 | 573

21

23.05.2016 06:04

Зарубежное кино [DVDRip, Low-Res HDRip, и т.д.] Боги Египта / Gods of Egypt (Алекс Пройас / Alex Proyas) [2016 г., фэнтези, боевик, приключения, BDRip-AVC] Dub + Original (Eng) + Sub (Rus, Eng) 90ytr90
352 | 8

0 | 572

23

23.05.2016 06:31

Зарубежное кино [DVDRip, Low-Res HDRip, и т.д.] Боги Египта / Gods of Egypt (Алекс Пройас / Alex Proyas) [2016 г., фэнтези, боевик, приключения, BDRip-AVC] Dub + Sub (Rus, Eng) 90ytr90
73 | 0

0 | 485

17

23.05.2016 06:36

Зарубежное кино [HDDVDRip / BDRip / WEB-DL / HDTV 1080/720р] Боги Египта / Gods of Egypt (Алекс Пройас) [2016 г., фэнтези, приключения, боевик, BDRip 1080p] Dub + Original + Subs makkol
107 | 11

0 | 656

15

21.05.2016 14:00

Зарубежное кино [HDDVDRip / BDRip / WEB-DL / HDTV 1080/720р] Боги Египта / Gods of Egypt (Алекс Пройас / Alex Proyas) [2016 г., фэнтези, боевик, приключения, BDRip 720p] Dub + Original (Eng) + Sub (Rus, Eng) 90ytr90
10 | 4

0 | 443

11

23.05.2016 06:13

Зарубежное кино [HDDVDRip / BDRip / WEB-DL / HDTV 1080/720р] Боги Египта / Gods of Egypt (Алекс Пройас / Alex Proyas) [2016 г., фэнтези, боевик, приключения, BDRip 1080p] Dub + Original (Eng) + Sub (Rus, Eng) 90ytr90
16 | 2

0 | 498

12

23.05.2016 06:23

Зарубежное кино [HDDVDRip / BDRip / WEB-DL / HDTV 1080/720р] Боги Египта / Gods of Egypt (Алекс Пройас / Alex Proyas) [2016 г., фэнтези, боевик, приключения, BDRip 720p] Dub 90ytr90
31 | 4

0 | 1053

2

02.06.2016 09:28

Зарубежное кино [HDDVDRip / BDRip / WEB-DL / HDTV 1080/720р] Боги Египта / Gods of Egypt (Алекс Пройас / Alex Proyas) [2016 г., фэнтези, боевик, приключения, BDRip 720p] Dub + AVO (Матвеев) + Original (Eng) + Sub (Rus, Eng) 90ytr90
40 | 4

0 | 1007

10

02.06.2016 09:38


Яндекс.Метрика powered by Sphinx


В Н И М А Н И Е
Сайт не распространяет и не хранит электронные версии произведений, а лишь бесплатно и без коммерческой выгоды (не требуя взамен платы,
SMS и т.д.) предоставляет доступ к создаваемому пользователями каталогу ссылок на торрент-файлы, которые содержат только списки хеш-сумм.
Убедительная просьба с жалобами обращаться напрямую к пользователю, разместившему торрент файл.

Вверх