Loading...
Error

Загадка мироздания. Николай Рубцов [2006 г., документальный, биография, поэзия, TVRip]

Статистика раздачи
Размер:  265 MB   |    Зарегистрирован:  6 месяцев   |    Скачан:  0 раз

Полного источника не было: 6 месяцев

Сидов:  0  |  0 KB/s  ]   Личеров:  0  |  0 KB/s  ]

* - сиды/пиры с внешних источников

   
 
Автор Сообщение

ARI71 Пол:Муж

20-Май-2016 09:46

Загадка мироздания. Николай Рубцов


Год выпуска: 2006
Жанр: документальный, биография, поэзия
Страна: Россия ГТРК "Культура"
Режиссер: Ярослав Гриневский
В ролях: Ольга Фокина, Станислав Куняев, Феликс Кузнецов, Нинель Старичкова
Сюжет фильма:
Одно из самых знаменитых стихотворений Николая Рубцова "Я буду скакать по холмам задремавшей отчизны…" кончается строками о "неведомом отроке", "таинственном всаднике", который промчался ночью над Россией и "скрылся в тумане полей". В этих словах заключена вся судьба поэта, трагическая, яркая, полная загадок, противоречий, бесконечных метаний и мистических предчувствий.

Никола́й Миха́йлович Рубцо́в (3 января 1936, село Емецк, Северный край — 19 января 1971, Вологда) — русский лирический поэт.

Качество видео: TVRip

Продолжительность: 00:38:47
Формат: AVI
Видео: XviD, 512x384, ~849 kbps
Аудио: русский, (оригинал), AC3 2.0, ~96.00 kbps

Код:

Общее
Полное имя : D:\Николай Рубцов. Загадка мироздания.xvid.avi
Формат : AVI
Формат/Информация : Audio Video Interleave
Размер файла : 265 Мбайт
Продолжительность : 38 м.
Общий поток : 956 Кбит/сек
Программа кодирования : Lavf52.82.0

Видео
Идентификатор : 0
Формат : MPEG-4 Visual
Профиль формата : Simple@L3
Параметр BVOP формата : Нет
Параметр QPel формата : Нет
Параметр GMC формата : Без точки перехода
Параметр матрицы формата : Default (H.263)
Идентификатор кодека : FMP4
Продолжительность : 38 м.
Битрейт : 849 Кбит/сек
Ширина : 512 пикселей
Высота : 384 пикселя
Соотношение сторон : 4:3
Частота кадров : 25,000 кадров/сек
Цветовое пространство : YUV
Субдискретизация насыщенности : 4:2:0
Битовая глубина : 8 бит
Тип развёртки : Прогрессивная
Метод сжатия : С потерями
Бит/(Пиксели*Кадры) : 0.173
Размер потока : 236 Мбайт (89%)
Библиотека кодирования : XviD 1.2.1 (UTC 2008-12-04)

Аудио
Идентификатор : 1
Формат : AC-3
Формат/Информация : Audio Coding 3
Расширение режима : CM (complete main)
Параметр Endianness формата : Big
Идентификатор кодека : 2000
Продолжительность : 38 м.
Вид битрейта : Постоянный
Битрейт : 96,0 Кбит/сек
Каналы : 2 канала
Расположение каналов : Front: L R
Частота : 44,1 КГц
Битовая глубина : 16 бит
Метод сжатия : С потерями
Размер потока : 26,6 Мбайт (10%)
Выравнивание : Соединение по промежуткам
Продолжительность промежутка : 35 мс. (0,87 видеокадр)
Время предзагрузки промежутка : 34 мс.
picpicpicpicpic
Для увеличения картинки щелкните мышкой по превью

Этот торрент недоступен для скачивания без регистрации, однако доступен по публичной magnet-ссылке (источники с публичных трекеров). Перед использованием ссылки прочтите, пожалуйста Пользовательское соглашение, а также как можно дольше оставайтесь на раздаче! Для того, чтобы скачать сам торрент-файл (который видит больше источников), а также для того, чтобы поблагодарить релизера, вам необходимо зарегистрироваться. Если регистрироваться лень - вы можете также попробовать скачать релиз по нашим партнерским ссылкам ниже.

[underverse.su].t66370.torrent
Трекер: Зарегистрирован   [ 20.05.2016 09:46 ]  

Статус: проверено (by makkol at 20.05.2016 11:04)
Поблагодарили: пока никто не поблагодарил...
Тип торрента: публичный - доступные источники с открытых трекеров: 
Размер: 265 MB (занимает 0,06 DVDR, для записи нужно 1 болванка DVDR/RW)
 
 

Яндекс.Метрика powered by Sphinx


В Н И М А Н И Е
Сайт не распространяет и не хранит электронные версии произведений, а лишь бесплатно и без коммерческой выгоды (не требуя взамен платы,
SMS и т.д.) предоставляет доступ к создаваемому пользователями каталогу ссылок на торрент-файлы, которые содержат только списки хеш-сумм.
Убедительная просьба с жалобами обращаться напрямую к пользователю, разместившему торрент файл.

Вверх