Loading...
Error

Морские чудовища: в поисках гигантского кальмара / Sea Monsters: Search For Giant Squid [1998 г., документальный, научно-популярный, TVRip] VO

Статистика раздачи
Размер:  220 MB   |    Зарегистрирован:  6 месяцев   |    Скачан:  2 раза

Полного источника не было: 4 часа

Сидов:  0  |  0 KB/s  ]   Личеров:  0  |  0 KB/s  ]

* - сиды/пиры с внешних источников

   
 
Автор Сообщение

ARI71 Пол:Муж

20-Май-2016 08:31

Морские чудовища: в поисках гигантского кальмара / Sea Monsters: Search For Giant Squid


Год выпуска: 1998
Жанр: документальный, научно-популярный
Страна: США National Geographic
Режиссер: Кевин МакКери
Сюжет фильма:
Издавна моряки рассказывали о монстре с ужасными щупальцами, пожиравшем корабли. Теперь мы знаем, что на самом деле это легендарное подводное чудище – гигантский кальмар, весящий почти тонну и достигающий 18-ти метров в длину. Вы отправитесь на поиски этих величественных существ вместе с кашалотами, которые охотятся на этих неуловимых гигантов. Установленная на спине кита специальная подводная камера позволит вам насладиться уникальными кадрами. Погрузитесь в мрачные океанские глубины в поисках существа, которого еще никто не видел живым...
Качество видео: TVRip

Продолжительность: 00:47:17
Формат: AVI
Видео: DivX 5, 512x384, ~514 kbps
Аудио: русский, одноголосый (профессиональный), MP3 (mono), ~128.00 kbps

Код:

Общее
Полное имя : D:\Морские чудовища - в поисках гигантского кальмара.avi
Формат : AVI
Формат/Информация : Audio Video Interleave
Размер файла : 220 Мбайт
Продолжительность : 47 м.
Общий поток : 652 Кбит/сек
Программа кодирования : VirtualDubMod 1.5.10.1 (build 2366/release)
Библиотека кодирования : VirtualDubMod build 2366/release

Видео
Идентификатор : 0
Формат : MPEG-4 Visual
Параметр BVOP формата : 1
Параметр QPel формата : Нет
Параметр GMC формата : 2 точки перехода
Параметр матрицы формата : Default (H.263)
Режим смешивания : Сжатый битовый поток
Идентификатор кодека : DX50
Идентификатор кодека/Подсказка : DivX 5
Продолжительность : 47 м.
Битрейт : 514 Кбит/сек
Ширина : 512 пикселей
Высота : 384 пикселя
Соотношение сторон : 4:3
Частота кадров : 25,000 кадров/сек
Цветовое пространство : YUV
Субдискретизация насыщенности : 4:2:0
Битовая глубина : 8 бит
Тип развёртки : Прогрессивная
Метод сжатия : С потерями
Бит/(Пиксели*Кадры) : 0.105
Размер потока : 174 Мбайт (79%)
Библиотека кодирования : DivX 5.1.0 (UTC 2003-09-02)

Аудио
Идентификатор : 1
Формат : MPEG Audio
Версия формата : Version 1
Профиль формата : Layer 3
Идентификатор кодека : 55
Идентификатор кодека/Подсказка : MP3
Продолжительность : 47 м.
Вид битрейта : Постоянный
Битрейт : 128 Кбит/сек
Каналы : 1 канал
Частота : 44,1 КГц
Метод сжатия : С потерями
Размер потока : 43,3 Мбайт (20%)
Выравнивание : Разделение по промежуткам
Продолжительность промежутка : 40 мс. (1,00 видеокадр)
Время предзагрузки промежутка : 500 мс.
Библиотека кодирования : LAME3.93 
Настройки программы : -m m -V 4 -q 2 -lowpass 20.1 -b 128
picpicpicpicpic
Для увеличения картинки щелкните мышкой по превью

Этот торрент недоступен для скачивания без регистрации, однако доступен по публичной magnet-ссылке (источники с публичных трекеров). Перед использованием ссылки прочтите, пожалуйста Пользовательское соглашение, а также как можно дольше оставайтесь на раздаче! Для того, чтобы скачать сам торрент-файл (который видит больше источников), а также для того, чтобы поблагодарить релизера, вам необходимо зарегистрироваться. Если регистрироваться лень - вы можете также попробовать скачать релиз по нашим партнерским ссылкам ниже.

[underverse.su].t66366.torrent
Трекер: Зарегистрирован   [ 20.05.2016 08:31 ]  

Статус: проверено (by 90ytr90 at 20.05.2016 09:09)
Поблагодарили: пока никто не поблагодарил...
Тип торрента: публичный - доступные источники с открытых трекеров: 
Размер: 220 MB (занимает 0,05 DVDR, для записи нужно 1 болванка DVDR/RW)
 
 

Яндекс.Метрика powered by Sphinx


В Н И М А Н И Е
Сайт не распространяет и не хранит электронные версии произведений, а лишь бесплатно и без коммерческой выгоды (не требуя взамен платы,
SMS и т.д.) предоставляет доступ к создаваемому пользователями каталогу ссылок на торрент-файлы, которые содержат только списки хеш-сумм.
Убедительная просьба с жалобами обращаться напрямую к пользователю, разместившему торрент файл.

Вверх