Loading...
Error

Жизнь и смерть в Помпеях и Геркулануме / The Other Pompeii: Life and Death in Herculaneum [2013 г., документальный, история древнего мира, HDTVRip] VO

Статистика раздачи
Размер:  902 MB   |    Зарегистрирован:  6 месяцев   |    Скачан:  3 раза

Полного источника не было: 6 месяцев

Сидов:  0  |  0 KB/s  ]   Личеров:  0  |  0 KB/s  ]

* - сиды/пиры с внешних источников

   
 
Автор Сообщение

ARI71 Пол:Муж

20-Май-2016 07:33

Жизнь и смерть в Помпеях и Геркулануме / The Other Pompeii: Life and Death in Herculaneum


Год выпуска: 2013
Жанр: документальный, история древнего мира
Страна: Великобритания Brave New Media
Режиссер: Пол Елстон
Сюжет фильма:
Уже два с половиной столетия Геркуланум и Помпеи захватывают всеобщее воображение. Профессор Эндрю Уоллос-Хедрилл последние 30 лет исследует остатки двух самых известных и восхитительных археологических объектов в мире. Он пытается приподнять завесу тайны и на основе последних научных данных представить, какой была жизнь в этих римских городах, прежде чем они были разрушены чудовищным извержением Везувия.


Качество видео: HDTVRip

Продолжительность: 00:59:00
Формат: AVI
Видео: XviD, 720x400, ~2000 kbps
Аудио: русский, одноголосый (профессиональный), AC3 2.0, ~128.00 kbps

Код:

Общее
Полное имя : D:\BBC.The.Other.Pompeii.Life.and.Death.in.Herculaneum.[R.G.RealMT].avi
Формат : AVI
Формат/Информация : Audio Video Interleave
Размер файла : 902 Мбайт
Продолжительность : 59 м.
Общий поток : 2137 Кбит/сек
Программа кодирования : VirtualDubMod 1.5.10.3 | www.virtualdub-fr.org || (build 2550/release)
Библиотека кодирования : VirtualDubMod build 2550/release

Видео
Идентификатор : 0
Формат : MPEG-4 Visual
Профиль формата : Advanced Simple@L5
Параметр BVOP формата : 2
Параметр QPel формата : Нет
Параметр GMC формата : Без точки перехода
Параметр матрицы формата : Default (H.263)
Режим смешивания : Сжатый битовый поток
Идентификатор кодека : XVID
Идентификатор кодека/Подсказка : XviD
Продолжительность : 59 м.
Битрейт : 2000 Кбит/сек
Ширина : 720 пикселей
Высота : 400 пикселей
Соотношение сторон : 16:9
Частота кадров : 25,000 кадров/сек
Цветовое пространство : YUV
Субдискретизация насыщенности : 4:2:0
Битовая глубина : 8 бит
Тип развёртки : Прогрессивная
Метод сжатия : С потерями
Бит/(Пиксели*Кадры) : 0.278
Размер потока : 844 Мбайт (94%)
Библиотека кодирования : XviD 1.2.1 (UTC 2008-12-04)

Аудио
Идентификатор : 1
Формат : AC-3
Формат/Информация : Audio Coding 3
Расширение режима : CM (complete main)
Параметр Endianness формата : Big
Идентификатор кодека : 2000
Продолжительность : 59 м.
Вид битрейта : Постоянный
Битрейт : 128 Кбит/сек
Каналы : 2 канала
Расположение каналов : Front: L R
Частота : 48,0 КГц
Метод сжатия : С потерями
Размер потока : 54,0 Мбайт (6%)
Выравнивание : Разделение по промежуткам
Продолжительность промежутка : 40 мс. (1,00 видеокадр)
Время предзагрузки промежутка : 500 мс.
picpicpicpicpic
Для увеличения картинки щелкните мышкой по превью

Этот торрент недоступен для скачивания без регистрации, однако доступен по публичной magnet-ссылке (источники с публичных трекеров). Перед использованием ссылки прочтите, пожалуйста Пользовательское соглашение, а также как можно дольше оставайтесь на раздаче! Для того, чтобы скачать сам торрент-файл (который видит больше источников), а также для того, чтобы поблагодарить релизера, вам необходимо зарегистрироваться. Если регистрироваться лень - вы можете также попробовать скачать релиз по нашим партнерским ссылкам ниже.

[underverse.su].t66361.torrent
Трекер: Зарегистрирован   [ 20.05.2016 07:33 ]  

Статус: проверено (by 90ytr90 at 20.05.2016 08:33)
Поблагодарили: пока никто не поблагодарил...
Тип торрента: публичный - доступные источники с открытых трекеров: 
Размер: 902 MB (занимает 0,2 DVDR, для записи нужно 1 болванка DVDR/RW)
 
 
Похожие темы
Форум Тема Автор Торрент Отв. Посл. сооб.
xUSSR сериалы Жизнь и смерть Леньки Пантелеева [01-08 из 08] (Эрнест Ясан) [2006 г., боевик, криминал, приключения, DVDRip] konopic
7 | 2

0 | 375

10

14.04.2014 08:12

* Архив Жизнь и смерть Достоевского [2004 г. г., документальный, биография , TVRip] NMZ

1 | 1484

30.08.2010 00:06


Яндекс.Метрика powered by Sphinx


В Н И М А Н И Е
Сайт не распространяет и не хранит электронные версии произведений, а лишь бесплатно и без коммерческой выгоды (не требуя взамен платы,
SMS и т.д.) предоставляет доступ к создаваемому пользователями каталогу ссылок на торрент-файлы, которые содержат только списки хеш-сумм.
Убедительная просьба с жалобами обращаться напрямую к пользователю, разместившему торрент файл.

Вверх