Loading...
Error

Зверополис / Zootopia (Байрон Ховард, Рич Мур, Джаред Буш) [2016 г., мультфильм, комедия, приключения, семейный, WEB-DLRip] Dub (Line)

Статистика раздачи
Размер:  1,46 GB   |    Зарегистрирован:  6 месяцев   |    Скачан:  26 раз

Полного источника не было: 2 часа 41 минута

Сидов:  0  |  0 KB/s  ]   Личеров:  0  |  0 KB/s  ]

* - сиды/пиры с внешних источников

   
 
Автор Сообщение

makkol Пол:Муж

18-Май-2016 23:31

Зверополис / Zootopia
«Добро пожаловать в городские джунгли»

Год выпуска: 2016
Жанр: мультфильм, комедия, приключения, семейный
Производство: США [Walt Disney Animation Studios]
Режиссер: Байрон Ховард, Рич Мур, Джаред Буш
Роли озвучивали: Джиннифер Гудвин, Джейсон Бейтмен, Идрис Эльба, Дженни Слейт, Нейт Торренс, Бонни Хант, Дон Лейк, Томми Чонг, Дж.К. Симмонс, Октавия Спенсер
Сюжет фильма:
Добро пожаловать в Зверополис — современный город, населенный самыми разными животными, от огромных слонов до крошечных мышек. Зверополис разделен на районы, полностью повторяющие естественную среду обитания разных жителей — здесь есть и элитный район Площадь Сахары и неприветливый Тундратаун. В этом городе появляется новый офицер полиции, жизнерадостная зайчиха Джуди Хоппс, которая с первых дней работы понимает, как сложно быть маленькой и пушистой среди больших и сильных полицейских. Джуди хватается за первую же возможность проявить себя, несмотря на то, что ее партнером будет болтливый хитрый лис Ник Уайлд. Вдвоем им предстоит раскрыть сложное дело, от которого будет зависеть судьба всех обитателей Зверополиса.

  • Мировая премьера: 11 февраля 2016
  • Российская премьера: 3 марта 2016
  • Релиз на DVD и Blu-Ray: 3 июня 2016


Качество видео: WEB-DLRip

Продолжительность: 01:44:11
Формат: AVI
Видео: XviD, 720x304 (2.35:1), 25.000 fps, 1806 kbps
Аудио: русский, дублированный (чистый звук), AC3 2.0, 48 kHz, 192 kbps

Код:

Формат : AVI
Формат/Информация : Audio Video Interleave
Размер файла : 1,46 Гбайт
Продолжительность : 1 ч. 43 м.
Общий поток : 2008 Кбит/сек
Программа кодирования : VirtualDubMod 1.5.10.2 (build 2540/release)
Библиотека кодирования : VirtualDubMod build 2540/release

Видео
Идентификатор : 0
Формат : MPEG-4 Visual
Профиль формата : Advanced Simple@L5
Параметр BVOP формата : 2
Параметр QPel формата : Нет
Параметр GMC формата : Без точки перехода
Параметр матрицы формата : Выборочная
Идентификатор кодека : XVID
Идентификатор кодека/Подсказка : XviD
Продолжительность : 1 ч. 43 м.
Битрейт : 1806 Кбит/сек
Ширина : 720 пикселей
Высота : 304 пикселя
Соотношение сторон : 2,35:1
Частота кадров : 25,000 кадров/сек
Цветовое пространство : YUV
Субдискретизация насыщенности : 4:2:0
Битовая глубина : 8 бит
Тип развёртки : Прогрессивная
Метод сжатия : С потерями
Бит/(Пиксели*Кадры) : 0.330
Размер потока : 1,31 Гбайт (90%)
Библиотека кодирования : XviD 1.2.1 (UTC 2008-12-04)

Аудио
Идентификатор : 1
Формат : AC-3
Формат/Информация : Audio Coding 3
Расширение режима : CM (complete main)
Параметр Endianness формата : Big
Идентификатор кодека : 2000
Продолжительность : 1 ч. 43 м.
Вид битрейта : Постоянный
Битрейт : 192 Кбит/сек
Каналы : 2 канала
Расположение каналов : Front: L R
Частота : 48,0 КГц
Метод сжатия : С потерями
Размер потока : 143 Мбайт (10%)
Выравнивание : Разделение по промежуткам
Продолжительность промежутка : 40 мс. (1,00 видеокадр)
Время предзагрузки промежутка : 500 мс.
Релиз:
Релиз без рекламы


pic pic pic pic pic
Для увеличения картинки щелкните мышкой по превью

Этот торрент недоступен для скачивания без регистрации, однако доступен по публичной magnet-ссылке (источники с публичных трекеров). Перед использованием ссылки прочтите, пожалуйста Пользовательское соглашение, а также как можно дольше оставайтесь на раздаче! Для того, чтобы скачать сам торрент-файл (который видит больше источников), а также для того, чтобы поблагодарить релизера, вам необходимо зарегистрироваться. Если регистрироваться лень - вы можете также попробовать скачать релиз по нашим партнерским ссылкам ниже.

[underverse.su].t66311.torrent
Трекер: Зарегистрирован   [ 19.05.2016 13:14 ]  

Статус: T временная (by makkol at 21.05.2016 23:10)
Поблагодарили: 1 человек
Тип торрента: публичный - доступные источники с открытых трекеров: 
Размер: 1,46 GB (занимает 0,33 DVDR, для записи нужно 1 болванка DVDR/RW)
 
 
Похожие темы
Форум Тема Автор Торрент Отв. Посл. сооб.
T Зарубежные мультфильмы Зверополис / Zootopia (Байрон Ховард / Byron Howard, Рич Мур / Rich Moore, Джаред Буш / Jared Bush) [2016 г., мультфильм, боевик, комедия, приключения, семейный, HDRip] Dub (чистый звук) 90ytr90
1397 | 15

0 | 1224

103

20.05.2016 10:32

T Зарубежные мультфильмы Зверополис / Zootopia (Байрон Ховард, Рич Мур, Джаред Буш) [2016 г., мультфильм, комедия, приключения, семейный, HDRip] Dub (iTunes) makkol
46 | 0

0 | 706

31

06.06.2016 22:41

Зарубежные мультфильмы Зверополис / Zootopia (Байрон Ховард / Byron Howard, Рич Мур / Rich Moore, Джаред Буш / Jared Bush) [2016 г., мультфильм, боевик, комедия, приключения, BDRip] [локализованная версия] Dub + hardsub... 90ytr90
20 | 2

0 | 311

11

13.08.2016 08:51

Зарубежные мультфильмы Зверополис / Zootopia (Байрон Ховард / Byron Howard, Рич Мур / Rich Moore, Джаред Буш / Jared Bush) [2016 г., мультфильм, боевик, комедия, приключения, BDRip] Dub + Original + Sub (Rus, Eng) 90ytr90
51 | 4

0 | 337

11

15.08.2016 19:51

Мультфильмы [HDDVDRip / BDRip / WEB-DL / HDTV 1080/720р] Зверополис / Zootopia (Байрон Ховард / Byron Howard, Рич Мур / Rich Moore, Джаред Буш / Jared Bush) [2016 г., мультфильм, боевик, комедия, приключения, BDRip 1080p] [локализованная версия] Dub +... 90ytr90
48 | 8

0 | 384

3

25.11.2016 19:45

T Мультфильмы [HDDVDRip / BDRip / WEB-DL / HDTV 1080/720р] Зверополис / Zootopia (Байрон Ховард, Рич Мур, Джаред Буш) [2016 г., мультфильм, комедия, приключения, семейный, WEB-DL 1080p] Dub (Line) + Original makkol
0 | 4

1 | 616

24

19.05.2016 13:28

T Мультфильмы [HDDVDRip / BDRip / WEB-DL / HDTV 1080/720р] Зверополис / Zootopia (Байрон Ховард / Byron Howard, Рич Мур / Rich Moore, Джаред Буш / Jared Bush) [2016 г., мультфильм, боевик, комедия, приключения, семейный, BDRip 720p] Dub (чистый звук) +... 90ytr90
117 | 3

0 | 872

54

20.05.2016 08:02

T Мультфильмы [HDDVDRip / BDRip / WEB-DL / HDTV 1080/720р] Зверополис / Zootopia (Байрон Ховард, Рич Мур, Джаред Буш) [2016 г., мультфильм, комедия, приключения, семейный, BDRip 720p] Dub (iTunes) + Original makkol
450 | 7

0 | 833

35

06.06.2016 22:52

T Мультфильмы [HDDVDRip / BDRip / WEB-DL / HDTV 1080/720р] Зверополис / Zootopia (Байрон Ховард, Рич Мур, Джаред Буш) [2016 г., мультфильм, комедия, приключения, семейный, BDRip 1080p] Dub (iTunes) + Original makkol
18 | 0

0 | 796

30

06.06.2016 23:02

Мультфильмы [HDDVDRip / BDRip / WEB-DL / HDTV 1080/720р] Зверополис / Zootopia (Байрон Ховард / Byron Howard, Рич Мур / Rich Moore, Джаред Буш / Jared Bush) [2016 г., мультфильм, боевик, комедия, приключения, BDRip 720p] [локализованная версия] 2xDub (Rus,... 90ytr90
109 | 4

0 | 361

10

13.08.2016 09:06



Последний раз редактировалось: makkol (19.05.2016 13:20), всего редактировалось 1 раз

makkol Пол:Муж

19-Май-2016 13:16

19.05 в 16:00 - замена на рип без хардсабов.

Яндекс.Метрика powered by Sphinx


В Н И М А Н И Е
Сайт не распространяет и не хранит электронные версии произведений, а лишь бесплатно и без коммерческой выгоды (не требуя взамен платы,
SMS и т.д.) предоставляет доступ к создаваемому пользователями каталогу ссылок на торрент-файлы, которые содержат только списки хеш-сумм.
Убедительная просьба с жалобами обращаться напрямую к пользователю, разместившему торрент файл.

Вверх