Loading...
Error

Вторая мать / Во сколько она вернется? / Que horas ela volta? (Анна Майлаерт) [2015 г., драма, комедия, WEBRip] DVO

Статистика раздачи
Размер:  1,41 GB   |    Зарегистрирован:  6 месяцев   |    Скачан:  2 раза

Полного источника не было: 3 месяца 19 дней

Сидов:  0  |  0 KB/s  ]   Личеров:  0  |  0 KB/s  ]

* - сиды/пиры с внешних источников

   
 
Автор Сообщение

makkol Пол:Муж

18-Май-2016 23:19

Вторая мать / Во сколько она вернется? / Que horas ela volta?


Год выпуска: 2015
Жанр: драма, комедия
Производство: Бразилия [Africa Filmes, Globo Filmes, Gullane Filmes]
Режиссер: Анна Майлаерт
В ролях: Режина Казе, Мишель Жуэлсаш, Карин Телес, Лоуренко Мутарелли, Луис Миранда, Люси Перейра
Сюжет фильма:
Фильм повествует о домработнице Вал, которая, проработав многие годы в Сан-Паулу вдали от своей дочери Жессики, оставленной в штате Пернамбуку, наконец, имеет стабильную работу, но ее мучает совесть из-за расставания с семьей. В то же время она фактически стала второй матерью сыну своих работодателей, которого помогала растить как няня.

  • Мировая премьера: 25 января 2015


Качество видео: WEBRip

Продолжительность: 01:51:42
Формат: AVI
Видео: XviD, 720x400 (16:9), 24.000 fps, 1609 kbps
Аудио: русский, любительский двухголосый закадровый (Avebrasil), AC3 2.0, 48 kHz, 192 kbps
- Фильм был отправлен от Бразилии на соискание главной кинопремии мира - «Оскар», но в окончательный шорт-лист не попал.
- Первоначальное название фильма звучало как «Кухонная дверь». Сценарист и режиссер фильма Анна Муйлаэрт писала сценарий из собственного опыта, когда она оставляла своего маленького сына на воспитание домработницы, которая оставила в другом городе свою дочь.
- В декабре 2015 года Национальный совет кинокритиков США признал фильм одним из пяти лучших иностранных фильмов 2015 года. В том же месяце был признан лучшим фильмом 2015 года по версии Бразильской ассоциации кинокритиков.
- Анна Муйлаэрт задумывала снять этот фильм еще до ее первого полнометражного фильма, но тогда она посчитала, что была еще не готова.
- В ранних набросках сценария Жессика приезжает в Сан-Паулу, чтобы стать парикмахером, а после неудачи становится няней, как и ее мать.
- Оригинальное название фильма переводится как «Во сколько она вернется?». Этот вопрос задает маленький Фабинью в начале фильма, и в конце фильма его задает Жессика.
- В Германии фильм получил название - «Лето с мамой», в Италии - «Приехала моя дочь!», в Польше - «Почти как мать», в Швеции - «Другая мать», в Турции - «С мамой прошлым летом». Если ошиблись - поправьте, пожалуйста.
- На сайте Rotten Tomatoes фильм собрал 95% рейтинга на основе 66 рецензий. На сайте Metacritic фильм получил 82 балла из 100 на основе 26 рецензий кинокритиков.
- На международном кинофестивале Сандэнс жюри сделало исключение: премию за лучшую актрису получили обе исполнительницы главных ролей – Режина Казэ и Камила Мардила.
- Фильм был снят в престижном районе Морумби в Сан-Паулу в 2014 году.
- До 25 октября 2015 года фильм посмотрели 454000 зрителей бразильских кинотеатров. Прежде чем дебютировать в Бразилии , фильм посмотрело почти полумиллиона зрителей Европы. Только во Франции всего за четыре недели было продано 150000 билетов. В Италии фильм достиг 8-го места в рейтинге самых просматриваемых фильмов. В США кассовые сборы оказались очень хорошими для иностранного фильма - 376,986 тыс. долларов.
Берлинский кинофестиваль, 2015 год
Победитель:
Приз зрительских симпатий за лучший художественный фильм (программа «Панорама»)
Приз Европейской конфедерации художественного кино (программа «Панорама»)

Сандэнс, 2015 год
Победитель:
Специальный приз жюри - драма (программа «Мировое кино»)
Номинация:
Гран-при - драма (Программа «Мировое кино»)

Код:

Формат : AVI
Формат/Информация : Audio Video Interleave
Размер файла : 1,41 Гбайт
Продолжительность : 1 ч. 51 м.
Общий поток : 1810 Кбит/сек
Программа кодирования : VirtualDubMod 1.5.10.3 | www.virtualdub-fr.org || (build 2550/release)
Библиотека кодирования : VirtualDubMod build 2550/release

Видео
Идентификатор : 0
Формат : MPEG-4 Visual
Профиль формата : Advanced Simple@L5
Параметр BVOP формата : 2
Параметр QPel формата : Нет
Параметр GMC формата : Без точки перехода
Параметр матрицы формата : Default (MPEG)
Идентификатор кодека : XVID
Идентификатор кодека/Подсказка : XviD
Продолжительность : 1 ч. 51 м.
Битрейт : 1609 Кбит/сек
Ширина : 720 пикселей
Высота : 400 пикселей
Соотношение сторон : 16:9
Частота кадров : 24,000 кадра/сек
Цветовое пространство : YUV
Субдискретизация насыщенности : 4:2:0
Битовая глубина : 8 бит
Тип развёртки : Прогрессивная
Метод сжатия : С потерями
Бит/(Пиксели*Кадры) : 0.233
Размер потока : 1,26 Гбайт (89%)
Библиотека кодирования : XviD 73

Аудио
Идентификатор : 1
Формат : AC-3
Формат/Информация : Audio Coding 3
Расширение режима : CM (complete main)
Параметр Endianness формата : Big
Идентификатор кодека : 2000
Продолжительность : 1 ч. 51 м.
Вид битрейта : Постоянный
Битрейт : 192 Кбит/сек
Каналы : 2 канала
Расположение каналов : Front: L R
Частота : 48,0 КГц
Частота кадров : 31,250 кадров/сек (1536 spf)
Метод сжатия : С потерями
Размер потока : 153 Мбайт (11%)
Выравнивание : Разделение по промежуткам
Продолжительность промежутка : 42 мс. (1,00 видеокадр)
Время предзагрузки промежутка : 500 мс.
picpicpicpicpic
Для увеличения картинки щелкните мышкой по превью

Этот торрент недоступен для скачивания без регистрации, однако доступен по публичной magnet-ссылке (источники с публичных трекеров). Перед использованием ссылки прочтите, пожалуйста Пользовательское соглашение, а также как можно дольше оставайтесь на раздаче! Для того, чтобы скачать сам торрент-файл (который видит больше источников), а также для того, чтобы поблагодарить релизера, вам необходимо зарегистрироваться. Если регистрироваться лень - вы можете также попробовать скачать релиз по нашим партнерским ссылкам ниже.

[underverse.su].t66310.torrent
Трекер: Зарегистрирован   [ 18.05.2016 23:19 ]  

Статус: T временная (by makkol at 21.05.2016 23:10)
Поблагодарили: пока никто не поблагодарил...
Тип торрента: публичный - доступные источники с открытых трекеров: 
Размер: 1,41 GB (занимает 0,32 DVDR, для записи нужно 1 болванка DVDR/RW)
 
 
Похожие темы
Форум Тема Автор Торрент Отв. Посл. сооб.
T Зарубежное кино [HDDVDRip / BDRip / WEB-DL / HDTV 1080/720р] Вторая мать / Во сколько она вернется? / Que horas ela volta? (Анна Майлаерт / Anna Muylaert) [2015 г., драма, комедия, WEBRip 720р] DVO (Avebrasil) 90ytr90
4 | 1

0 | 584

4

19.05.2016 07:25


Яндекс.Метрика powered by Sphinx


В Н И М А Н И Е
Сайт не распространяет и не хранит электронные версии произведений, а лишь бесплатно и без коммерческой выгоды (не требуя взамен платы,
SMS и т.д.) предоставляет доступ к создаваемому пользователями каталогу ссылок на торрент-файлы, которые содержат только списки хеш-сумм.
Убедительная просьба с жалобами обращаться напрямую к пользователю, разместившему торрент файл.

Вверх