Loading...
Error

История одной случайности. Альберт Филозов [2007 г., документальный, биография, SatRip]

Статистика раздачи
Размер:  498 MB   |    Зарегистрирован:  1 год 6 месяцев   |    Скачан:  1 раз

Полного источника не было: 1 год 6 месяцев

Сидов:  0  |  0 KB/s  ]   Личеров:  0  |  0 KB/s  ]

* - сиды/пиры с внешних источников

   
 
Автор Сообщение

ARI71 Пол:Муж

18-Май-2016 17:12

История одной случайности. Альберт Филозов


Год выпуска: 2007
Жанр: документальный, биография
Страна: Россия ГТРК "Культура"
Режиссер: Ярослав Гриневский
В ролях: Альберт Филозов
Сюжет фильма:
Фильм посвящен народному артисту РСФСР, актеру Альберту Леонидовичу Филозову. Его герой романтичный, положительный, всегда с серьезными намерениями, небогатый, но честный, или стремящийся быть таковым. Самый большой успех актеру принесли спектакли Анатолия Васильева в Московском драматическом театре имени К.С. Станиславского "Взрослая дочь молодого человека" и "Серсо", которые в свое время помогли "оттаять" и очнуться целому пласту московской интеллигенции. Широкому же зрителю Альберт Филозов стал известен после выхода на экраны фильмов "Тихоня", "Вам и не снилось", "Ночные забавы".

Альбе́рт Леони́дович Фило́зов (25 июня 1937 — 11 апреля 2016) — советский и российский актёр театра и кино, педагог ВГИКа, профессор РАТИ. Народный артист Российской Федерации (1994)

Качество видео: SatRip

Продолжительность: 00:38:36
Формат: AVI
Видео: XviD, 704x528, ~1668 kbps
Аудио: русский, (оригинал), MP3 2.0, ~128.00 kbps

Код:

Общее
Полное имя : D:\История одной случайности. Альберт Филозов.2007.SATRip.kosta52.avi
Формат : AVI
Формат/Информация : Audio Video Interleave
Размер файла : 498 Мбайт
Продолжительность : 38 м.
Общий поток : 1805 Кбит/сек
Программа кодирования : VirtualDubMod 1.5.10.3 | www.virtualdub-fr.org || (build 2550/release)
Библиотека кодирования : VirtualDubMod build 2550/release

Видео
Идентификатор : 0
Формат : MPEG-4 Visual
Профиль формата : Advanced Simple@L5
Параметр BVOP формата : 2
Параметр QPel формата : Нет
Параметр GMC формата : Без точки перехода
Параметр матрицы формата : Default (MPEG)
Идентификатор кодека : XVID
Идентификатор кодека/Подсказка : XviD
Продолжительность : 38 м.
Битрейт : 1668 Кбит/сек
Ширина : 704 пикселя
Высота : 528 пикселей
Соотношение сторон : 4:3
Частота кадров : 25,000 кадров/сек
Цветовое пространство : YUV
Субдискретизация насыщенности : 4:2:0
Битовая глубина : 8 бит
Тип развёртки : Прогрессивная
Метод сжатия : С потерями
Бит/(Пиксели*Кадры) : 0.179
Размер потока : 460 Мбайт (92%)
Библиотека кодирования : XviD 73

Аудио
Идентификатор : 1
Формат : MPEG Audio
Версия формата : Version 1
Профиль формата : Layer 3
Идентификатор кодека : 55
Идентификатор кодека/Подсказка : MP3
Продолжительность : 38 м.
Вид битрейта : Постоянный
Битрейт : 128 Кбит/сек
Каналы : 2 канала
Частота : 48,0 КГц
Метод сжатия : С потерями
Размер потока : 35,3 Мбайт (7%)
Выравнивание : Соединение по промежуткам
Продолжительность промежутка : 40 мс. (1,00 видеокадр)
Время предзагрузки промежутка : 504 мс.
Библиотека кодирования : LAME3.99r
Настройки программы : -m s -V 4 -q 2 -lowpass 17 -b 128
Релиз группы:

picpicpicpicpic
Для увеличения картинки щелкните мышкой по превью

Этот торрент недоступен для скачивания без регистрации, однако доступен по публичной magnet-ссылке (источники с публичных трекеров). Перед использованием ссылки прочтите, пожалуйста Пользовательское соглашение, а также как можно дольше оставайтесь на раздаче! Для того, чтобы скачать сам торрент-файл (который видит больше источников), а также для того, чтобы поблагодарить релизера, вам необходимо зарегистрироваться. Если регистрироваться лень - вы можете также попробовать скачать релиз по нашим партнерским ссылкам ниже.

[underverse.su].t66302.torrent
Трекер: Зарегистрирован   [ 18.05.2016 17:12 ]  

Статус: проверено (by матроскин at 18.05.2016 21:08)
Поблагодарили: пока никто не поблагодарил...
Тип торрента: публичный - доступные источники с открытых трекеров: 
Размер: 498 MB (занимает 0,11 DVDR, для записи нужно 1 болванка DVDR/RW)
 
 
Похожие темы
Форум Тема Автор Торрент Отв. Посл. сооб.
Архив История одного вампира / Cirque du Freak: The Vampire`s Assistant (Пол Вайц) [2009 г., ужасы, боевик, триллер, фэнтези, комедия, приключения, DVDRip] LAMA
0 | 1

5 | 1059

14

12.09.2010 19:40

Архив История одного вампира / Cirque du Freak: The Vampire`s Assistant (Пол Вайц) [2009 г., ужасы, боевик, триллер, фэнтези, комедия, приключения, DVD-5] andrej-ku
0 | 0

1 | 669

0

12.11.2010 23:48


Яндекс.Метрика powered by Sphinx


В Н И М А Н И Е
Сайт не распространяет и не хранит электронные версии произведений, а лишь бесплатно и без коммерческой выгоды (не требуя взамен платы,
SMS и т.д.) предоставляет доступ к создаваемому пользователями каталогу ссылок на торрент-файлы, которые содержат только списки хеш-сумм.
Убедительная просьба с жалобами обращаться напрямую к пользователю, разместившему торрент файл.

Вверх