Loading...
Error

Ракета Гибралтар / Ракета на Гибралтар / Rocket Gibraltar (Дэниел Петри) [1988 г., драма, семейный, DVDRip] VO + Original + Subs

Статистика раздачи
Размер:  1,6 GB   |    Зарегистрирован:  6 месяцев   |    Скачан:  0 раз

Полного источника не было: 4 дня

Сидов:  0  |  0 KB/s  ]   Личеров:  0  |  0 KB/s  ]

* - сиды/пиры с внешних источников

   
 
Автор Сообщение

makkol Пол:Муж

18-Май-2016 15:49

Ракета Гибралтар / Ракета на Гибралтар / Rocket Gibraltar


Год выпуска: 1988
Жанр: драма, семейный
Производство: США [Columbia Pictures Corporation]
Режиссер: Дэниел Петри
В ролях: Бёрт Ланкастер, Сьюзи Эймис, Патришия Кларксон, Фрэнсис Конрой, Шинейд Кьюсак, Джон Гловер, Билл Пуллман, Кевин Спейси, Джон Белл, Никки Бронсон, Дэнни Коркилл, Маколей Калкин, Анджела Геталс, Сара Геталс, Эмили По, Сара Рю, Джордж Мартин, Джеймс МакДэниэл, Дэвид Хайд Пирс, Рени Коулмэн, Крэйг Брагинский
Сюжет фильма:
Ливаю Роквеллу (Берт Ланкастер) 77. Вся его жизнь – в воспоминаниях о прошедших днях и любимой жене, к которым он снова и снова возвращается, слушая проникновенные песни Билли Холидей. Когда отметить день рождения главы семейства собираются все его дети и внуки, выясняется, что несмотря на неизменную любовь к отцу и друг к другу, у каждого из них свои проблемы, взгляды на жизнь и сложные взаимоотношения. С внуками, тем не менее, у Ливая складывается полное взаимопонимание, и именно им он расскажет о своем последнем желании.

  • Мировая премьера: 2 сентября 1988


Качество видео: DVDRip

Продолжительность: 01:38:54
Формат: AVI
Видео: XviD, 672x512 (4:3), 23.976 fps, 1912 kbps
Аудио #1: русский, любительский одноголосый закадровый (Ярослав Литвинов), MP3 2.0, 48 kHz, 192 kbps
Аудио #2: английский, оригинал, AC3 2.0, 48 kHz, 192 kbps
Субтитры: русские (quest42good), английские внешние, SRT

Код:

Format : AVI
Format/Info : Audio Video Interleave
File size : 1.60 GiB
Duration : 1h 38mn
Overall bit rate : 2 310 Kbps
Writing application : VirtualDubMod 1.5.10.2 (build 2540/release)
Writing library : VirtualDubMod build 2540/release

Video
ID : 0
Format : MPEG-4 Visual
Format profile : Advanced Simple@L5
Format settings, BVOP : Yes
Format settings, QPel : No
Format settings, GMC : No warppoints
Format settings, Matrix : Custom
Codec ID : XVID
Codec ID/Hint : XviD
Duration : 1h 38mn
Bit rate : 1 912 Kbps
Width : 672 pixels
Height : 512 pixels
Display aspect ratio : 4:3
Frame rate : 23.976 fps
Color space : YUV
Chroma subsampling : 4:2:0
Bit depth : 8 bits
Scan type : Progressive
Bits/(Pixel*Frame) : 0.232
Stream size : 1.32 GiB (83%)
Writing library : XviD 1.2.1 (UTC 2008-12-04)

Audio #1
ID : 1
Format : MPEG Audio
Format version : Version 1
Format profile : Layer 3
Mode : Joint stereo
Mode extension : MS Stereo
Codec ID : 55
Codec ID/Hint : MP3
Duration : 1h 38mn
Bit rate mode : Constant
Bit rate : 192 Kbps
Channel(s) : 2 channels
Sampling rate : 48.0 KHz
Stream size : 136 MiB (8%)
Alignment : Aligned on interleaves
Interleave, duration : 42 ms (1.00 video frame)
Interleave, preload duration : 504 ms
Writing library : LAME3.98
Language : English

Audio #2
ID : 2
Format : AC-3
Format/Info : Audio Coding 3
Mode extension : CM (complete main)
Codec ID : 2000
Duration : 1h 38mn
Bit rate mode : Constant
Bit rate : 192 Kbps
Channel(s) : 2 channels
Channel positions : Front: L R
Sampling rate : 48.0 KHz
Bit depth : 16 bits
Stream size : 136 MiB (8%)
Alignment : Split accross interleaves
Interleave, duration : 42 ms (1.00 video frame)
Interleave, preload duration : 500 ms
picpicpicpicpic
Для увеличения картинки щелкните мышкой по превью

Этот торрент недоступен для скачивания без регистрации, однако доступен по публичной magnet-ссылке (источники с публичных трекеров). Перед использованием ссылки прочтите, пожалуйста Пользовательское соглашение, а также как можно дольше оставайтесь на раздаче! Для того, чтобы скачать сам торрент-файл (который видит больше источников), а также для того, чтобы поблагодарить релизера, вам необходимо зарегистрироваться. Если регистрироваться лень - вы можете также попробовать скачать релиз по нашим партнерским ссылкам ниже.

[underverse.su].t66296.torrent
Трекер: Зарегистрирован   [ 18.05.2016 15:49 ]  

Статус: проверено (by makkol at 21.05.2016 23:06)
Поблагодарили: пока никто не поблагодарил...
Тип торрента: публичный - доступные источники с открытых трекеров: 
Размер: 1,6 GB (занимает 0,36 DVDR, для записи нужно 1 болванка DVDR/RW)
 
 

Яндекс.Метрика powered by Sphinx


В Н И М А Н И Е
Сайт не распространяет и не хранит электронные версии произведений, а лишь бесплатно и без коммерческой выгоды (не требуя взамен платы,
SMS и т.д.) предоставляет доступ к создаваемому пользователями каталогу ссылок на торрент-файлы, которые содержат только списки хеш-сумм.
Убедительная просьба с жалобами обращаться напрямую к пользователю, разместившему торрент файл.

Вверх