Loading...
Error

Август / Avgust [2015 г., документальный, военный, хроника, реконструкция, WEBRip]

Статистика раздачи
Размер:  686 MB   |    Зарегистрирован:  6 месяцев   |    Скачан:  3 раза

Полного источника не было: 6 дней

Сидов:  0  |  0 KB/s  ]   Личеров:  0  |  0 KB/s  ]

* - сиды/пиры с внешних источников

   
 
Автор Сообщение

ARI71 Пол:Муж

18-Май-2016 14:28

Август / Avgust


Год выпуска: 2015
Жанр: документальный, военный, хроника, реконструкция
Страна: Молдова СЗАО "Интерднестрком"
Режиссер: Игорь Авренев
Сюжет фильма:
Документальный фильм «Август» посвящен стратегической военной операции Вооруженных сил Советского Союза против войск нацистской Германии и Румынии — Ясско-Кишинёвской операции. В Советской и современной российской истории эта операция считается одной из самых успешных и известна также под названием Ясско-Кишиневские Канны.
Качество видео: WEBRip

Продолжительность: 00:49:40
Формат: AVI
Видео: XviD, 720x400, ~1798 kbps
Аудио: русский, (оригинал), MP3 2.0, ~128.00 kbps

Код:

Общее
Полное имя : D:\Avgust.2015.XviD.MegaPeer.avi
Формат : AVI
Формат/Информация : Audio Video Interleave
Размер файла : 686 Мбайт
Продолжительность : 49 м.
Общий поток : 1932 Кбит/сек

Видео
Идентификатор : 0
Формат : MPEG-4 Visual
Профиль формата : Advanced Simple@L5
Параметр BVOP формата : 1
Параметр QPel формата : Нет
Параметр GMC формата : Без точки перехода
Параметр матрицы формата : Выборочная
Идентификатор кодека : XVID
Идентификатор кодека/Подсказка : XviD
Продолжительность : 49 м.
Битрейт : 1798 Кбит/сек
Ширина : 720 пикселей
Высота : 400 пикселей
Соотношение сторон : 16:9
Частота кадров : 25,000 кадров/сек
Цветовое пространство : YUV
Субдискретизация насыщенности : 4:2:0
Битовая глубина : 8 бит
Тип развёртки : Прогрессивная
Метод сжатия : С потерями
Бит/(Пиксели*Кадры) : 0.250
Размер потока : 639 Мбайт (93%)
Библиотека кодирования : XviD 73

Аудио
Идентификатор : 1
Формат : MPEG Audio
Версия формата : Version 1
Профиль формата : Layer 3
Режим : Joint stereo
Расширение режима : MS Stereo
Идентификатор кодека : 55
Идентификатор кодека/Подсказка : MP3
Продолжительность : 49 м.
Вид битрейта : Постоянный
Битрейт : 128 Кбит/сек
Каналы : 2 канала
Частота : 44,1 КГц
Метод сжатия : С потерями
Размер потока : 45,5 Мбайт (7%)
Выравнивание : Соединение по промежуткам
Продолжительность промежутка : 160 мс. (4,00 видеокадра)
Время предзагрузки промежутка : 208 мс.
Заголовок : RUS
Библиотека кодирования : LAME3.99r
Настройки программы : -m j -V 4 -q 2 -lowpass 17 -b 128
picpicpicpicpic
Для увеличения картинки щелкните мышкой по превью

Этот торрент недоступен для скачивания без регистрации, однако доступен по публичной magnet-ссылке (источники с публичных трекеров). Перед использованием ссылки прочтите, пожалуйста Пользовательское соглашение, а также как можно дольше оставайтесь на раздаче! Для того, чтобы скачать сам торрент-файл (который видит больше источников), а также для того, чтобы поблагодарить релизера, вам необходимо зарегистрироваться. Если регистрироваться лень - вы можете также попробовать скачать релиз по нашим партнерским ссылкам ниже.

[underverse.su].t66293.torrent
Трекер: Зарегистрирован   [ 18.05.2016 14:28 ]  

Статус: проверено (by матроскин at 18.05.2016 21:10)
Поблагодарили: пока никто не поблагодарил...
Тип торрента: публичный - доступные источники с открытых трекеров: 
Размер: 686 MB (занимает 0,15 DVDR, для записи нужно 1 болванка DVDR/RW)
 
 
Похожие темы
Форум Тема Автор Торрент Отв. Посл. сооб.
Зарубежное кино [DVDRip, Low-Res HDRip, и т.д.] Август / August: Osage County (Джон Уэллс) [2013 г., драма, BDRip] Dub [лицензия] Паукан
91 | 2

0 | 1368

45

04.03.2014 09:16

Зарубежное кино [DVDRip, Low-Res HDRip, и т.д.] Август / August: Osage County (Джон Уэллс) [2013 г., драма, BDRip] Dub [лицензия] Паукан
195 | 0

0 | 1683

73

04.03.2014 09:41

Зарубежное кино HQ Август / August: Osage County (Джон Уэллс) [2013 г., драма, BDRip] Dub + Original + Sub (Rus,Eng) HQ Underverse HQ Underverse
3 | 0

0 | 1571

85

14.03.2014 10:41

Зарубежное кино [HDDVDRip / BDRip / WEB-DL / HDTV 1080/720р] Август / August: Osage County (Джон Уэллс / John Wells) [2013 г., драма, BDRip 720p] Dub + Original (Eng) + Sub (Eng) 90ytr90
187 | 126

0 | 1257

19

04.03.2014 13:19


Яндекс.Метрика powered by Sphinx


В Н И М А Н И Е
Сайт не распространяет и не хранит электронные версии произведений, а лишь бесплатно и без коммерческой выгоды (не требуя взамен платы,
SMS и т.д.) предоставляет доступ к создаваемому пользователями каталогу ссылок на торрент-файлы, которые содержат только списки хеш-сумм.
Убедительная просьба с жалобами обращаться напрямую к пользователю, разместившему торрент файл.

Вверх