Loading...
Error

Михаил Булгаков. Великий мистификатор [2016 г., документальный, биография, HDTVRip-AVC]

Статистика раздачи
Размер:  616 MB   |    Зарегистрирован:  6 месяцев   |    Скачан:  3 раза

Полного источника не было: 4 месяца 9 дней

Сидов:  0  |  0 KB/s  ]   Личеров:  0  |  0 KB/s  ]

* - сиды/пиры с внешних источников

   
 
Автор Сообщение

ARI71 Пол:Муж

18-Май-2016 12:51

Михаил Булгаков. Великий мистификатор


Год выпуска: 2016
Жанр: документальный, биография
Страна: Россия Останкино
Режиссер: Сергей Браверман
Ведущий: Сергей Медведев
Участвуют: Владимир Бортко, Александр Галибин, Роман Карцев, Анна Ковальчук, Олег Басилашвили, Владимир Толоконников
Сюжет фильма:
Судьба Михаила Афанасьевича Булгакова представляется авторам фильма похожей на забег за чем‑то уходящим, ускользающим, мистически завораживающим — судьба, полная внезапных откровений и всякой чертовщины, а оттого горькая и далеко не всегда счастливая.
В судьбе Булгакова много разных «почему?».
Почему после звонка 18 апреля 1930 года, разделившего жизнь писателя на до и после, Сталин не перезвонил, как пообещал?
Почему книга тайны «Собачье сердце», арестованная и упрятанная в недра ОГПУ в 1926 году, была возвращена писателю в мае 1930 года, а сам он не был арестован, как многие из его окружения?
Почему архив писателя, датируемый от 1936 года и до последних его дней, остается недоступен?
Почему в юности он стал морфинистом и почему бросил женщину, его спасшую от этого ужаса?
На эти и другие «почему» пытаются ответить авторы фильма. Этот фильм — о натуре человека, который даже если хотел прогнуться, как это вышло с пьесой «Батум», то все равно не смог себя победить. Потому что еще с детства избрал своим принципом жизни «Главное – не терять достоинство».

Михаи́л Афана́сьевич Булга́ков ( [15] мая 1891, Киев, Российская империя — 10 марта 1940, Москва, СССР) — русский писатель, драматург, театральный режиссёр и актёр. Автор повестей и рассказов, множества фельетонов, пьес, инсценировок, киносценариев, оперных либретто.

Качество видео: HDTVRip-AVC

Продолжительность: 00:51:59
Формат: MKV
Видео: x264, 720x404, ~1431 kbps
Аудио: русский, (оригинал), AC3 2.0, ~192.00 kbps

Код:

Общее
Уникальный идентификатор : 251035154536882445161267139541077635595 (0xBCDB9CB4011262A898911A227F68B20B)
Полное имя : D:\Михаил Булгаков. Великий мистификатор.2016.HDTVRip.Doc66.mkv
Формат : Matroska
Версия формата : Version 2
Размер файла : 616 Мбайт
Продолжительность : 51 м.
Общий поток : 1656 Кбит/сек
Дата кодирования : UTC 2016-05-17 10:31:14
Программа кодирования : mkvmerge v6.1.0 ('Old Devil') built on Mar 4 2013 09:10:42
Библиотека кодирования : libebml v1.3.0 + libmatroska v1.4.0

Видео
Идентификатор : 1
Формат : AVC
Формат/Информация : Advanced Video Codec
Профиль формата : High@L4
Параметр CABAC формата : Да
Параметр ReFrames формата : 8 кадров
Идентификатор кодека : V_MPEG4/ISO/AVC
Продолжительность : 51 м.
Битрейт : 1431 Кбит/сек
Ширина : 720 пикселей
Высота : 404 пикселя
Соотношение сторон : 16:9
Режим частоты кадров : Постоянный
Частота кадров : 25,000 кадров/сек
Цветовое пространство : YUV
Субдискретизация насыщенности : 4:2:0
Битовая глубина : 8 бит
Тип развёртки : Прогрессивная
Бит/(Пиксели*Кадры) : 0.197
Размер потока : 532 Мбайт (86%)
Библиотека кодирования : x264 core 130 r2273 b3065e6
Настройки программы : cabac=1 / ref=8 / deblock=1:-2:-2 / analyse=0x3:0x113 / me=umh / subme=9 / psy=1 / psy_rd=1.00:0.15 / mixed_ref=1 / me_range=24 / chroma_me=1 / trellis=2 / 8x8dct=1 / cqm=0 / deadzone=21,11 / fast_pskip=1 / chroma_qp_offset=-3 / threads=6 / lookahead_threads=1 / sliced_threads=0 / nr=0 / decimate=1 / interlaced=0 / bluray_compat=0 / constrained_intra=0 / bframes=10 / b_pyramid=2 / b_adapt=2 / b_bias=0 / direct=1 / weightb=1 / open_gop=0 / weightp=2 / keyint=250 / keyint_min=25 / scenecut=40 / intra_refresh=0 / rc_lookahead=60 / rc=crf / mbtree=0 / crf=18.0 / qcomp=0.60 / qpmin=0 / qpmax=69 / qpstep=4 / vbv_maxrate=20000 / vbv_bufsize=25000 / crf_max=0.0 / nal_hrd=none / ip_ratio=1.40 / pb_ratio=1.30 / aq=2:0.80
Default : Да
Forced : Нет
Цветовой диапазон : Limited
Основные цвета : BT.709
Характеристики трансфера : BT.709
Коэффициенты матрицы : BT.709

Аудио
Идентификатор : 2
Формат : AC-3
Формат/Информация : Audio Coding 3
Расширение режима : CM (complete main)
Параметр Endianness формата : Big
Идентификатор кодека : A_AC3
Продолжительность : 51 м.
Вид битрейта : Постоянный
Битрейт : 192 Кбит/сек
Каналы : 2 канала
Расположение каналов : Front: L R
Частота : 48,0 КГц
Метод сжатия : С потерями
Размер потока : 71,4 Мбайт (12%)
Default : Да
Forced : Нет
picpicpicpicpic
Для увеличения картинки щелкните мышкой по превью

Этот торрент недоступен для скачивания без регистрации, однако доступен по публичной magnet-ссылке (источники с публичных трекеров). Перед использованием ссылки прочтите, пожалуйста Пользовательское соглашение, а также как можно дольше оставайтесь на раздаче! Для того, чтобы скачать сам торрент-файл (который видит больше источников), а также для того, чтобы поблагодарить релизера, вам необходимо зарегистрироваться. Если регистрироваться лень - вы можете также попробовать скачать релиз по нашим партнерским ссылкам ниже.

[underverse.su].t66291.torrent
Трекер: Зарегистрирован   [ 18.05.2016 12:51 ]  

Статус: проверено (by матроскин at 18.05.2016 21:12)
Поблагодарили: пока никто не поблагодарил...
Тип торрента: публичный - доступные источники с открытых трекеров: 
Размер: 616 MB (занимает 0,14 DVDR, для записи нужно 1 болванка DVDR/RW)
 
 
Похожие темы
Форум Тема Автор Торрент Отв. Посл. сооб.
Классика Михаил Булгаков - Морфий и другие рассказы [2008 г., аудиокнига, русская литература, классическая литература, MP3, 256 kbps] RUS Паукан
1 | 0

1 | 887

16

14.06.2016 07:15

Классика Михаил Булгаков - Мастер и Маргарита [2008 г., роман, AAC, 101 kbps] RUS Паукан
7 | 1

0 | 573

3

07.04.2016 17:21

Классика Михаил Булгаков - Мастер и Маргарита [2015 г., русская классика, мистика, MP3] RUS Паукан
32 | 1

0 | 154

2

07.08.2016 14:19

Ужасы, мистика Михаил Булгаков - Мастер и Маргарита (2008) [MP3, 160 kbps] krez099
0 | 0

4 | 2010

18

05.05.2013 15:05

Ужасы, мистика Михаил Булгаков - Мастер и Маргарита (2005) [MP3, 192 kbps] krez099
0 | 0

0 | 1247

5

28.10.2012 19:46

Ужасы, мистика Михаил Булгаков - Белая гвардия (2007) [MP3, 128 kbps] krez099
0 | 0

0 | 1088

4

04.11.2012 13:24

Собрания сочинений Михаил Булгаков - Полное собрание сочинений [2004 г., Классика, FB2, RTF] RUS M-i-i-i-ke
1 | 0

1 | 2394

67

02.07.2011 19:20


Яндекс.Метрика powered by Sphinx


В Н И М А Н И Е
Сайт не распространяет и не хранит электронные версии произведений, а лишь бесплатно и без коммерческой выгоды (не требуя взамен платы,
SMS и т.д.) предоставляет доступ к создаваемому пользователями каталогу ссылок на торрент-файлы, которые содержат только списки хеш-сумм.
Убедительная просьба с жалобами обращаться напрямую к пользователю, разместившему торрент файл.

Вверх