Loading...
Error

Запрос в друзья / Friend Request (Симон Ферхоэвен) [2016 г., триллер, SatRip] Dub (Line)

Статистика раздачи
Размер:  1,36 GB   |    Зарегистрирован:  6 месяцев   |    Скачан:  23 раза

Полного источника не было: 6 часов

Сидов:  0  |  0 KB/s  ]   Личеров:  0  |  0 KB/s  ]

* - сиды/пиры с внешних источников

   
 
Автор Сообщение

makkol Пол:Муж

17-Май-2016 22:18

Запрос в друзья / Friend Request
«Думай, кого добавляешь в друзья»

Год выпуска: 2016
Жанр: триллер
Страна: Германия [Seven Pictures, Two Oceans Production (TOP), Cape Town, Wiedemann & Berg Filmproduktion]
Режиссер: Симон Ферхоэвен
В ролях: Алисия Дебнем-Кери, Уильям Моусли, Коннор Паоло, Бритт Морган, Брук Маркам, Шон Маркетт, Лизль Алерс, Шэшони Холл, Сьюзэн Дэнфорд, Ли Равив
Сюжет фильма:
Вас добавляет в друзья одноклассник, однокурсник или коллега с работы, с которым вы практически никогда не общались, и начинает буквально атаковать вас сообщениями, почему-то решив, что вы с ним лучшие друзья. Знакомая ситуация? В подобную попадает Лора — главная героиня леденящего кровь триллера «Запрос в друзья». Решение удалить из френд-листа навязчивую и странноватую однокурсницу приведет к таким последствиям, которые не смогли бы предугадать даже самые большие любители хорроров.

  • Мировая премьера: 7 января 2016
  • Российская премьера: 17 марта 2016


Качество видео: SatRip

Продолжительность: 01:26:57
Формат: AVI
Видео: XviD, 720x304 (2.35:1), 25.000 fps, 2043 kbps
Аудио: русский, дублированный (чистый звук), AC3 2.0, 44.1 kHz, 192 kbps

Код:

Format : AVI
Format/Info : Audio Video Interleave
File size : 1.36 GiB
Duration : 1h 26mn
Overall bit rate : 2 245 Kbps
Writing application : VirtualDubMod 1.5.10.2 (build 2540/release)
Writing library : VirtualDubMod build 2540/release

Video
ID : 0
Format : MPEG-4 Visual
Format profile : Advanced Simple@L5
Format settings, BVOP : 2
Format settings, QPel : No
Format settings, GMC : No warppoints
Format settings, Matrix : Default (MPEG)
Codec ID : XVID
Codec ID/Hint : XviD
Duration : 1h 26mn
Bit rate : 2 043 Kbps
Width : 720 pixels
Height : 304 pixels
Display aspect ratio : 2.35:1
Frame rate : 25.000 fps
Color space : YUV
Chroma subsampling : 4:2:0
Bit depth : 8 bits
Scan type : Progressive
Compression mode : Lossy
Bits/(Pixel*Frame) : 0.373
Stream size : 1.24 GiB (91%)
Writing library : XviD 1.2.1 (UTC 2008-12-04)

Audio
ID : 1
Format : AC-3
Format/Info : Audio Coding 3
Mode extension : CM (complete main)
Format settings, Endianness : Big
Codec ID : 2000
Duration : 1h 26mn
Bit rate mode : Constant
Bit rate : 192 Kbps
Channel(s) : 2 channels
Channel positions : Front: L R
Sampling rate : 44.1 KHz
Compression mode : Lossy
Stream size : 119 MiB (9%)
Alignment : Split accross interleaves
Interleave, duration : 40 ms (1.00 video frame)
Interleave, preload duration : 500 ms
Релиз без рекламы


picpicpicpicpic
Для увеличения картинки щелкните мышкой по превью

Этот торрент недоступен для скачивания без регистрации, однако доступен по публичной magnet-ссылке (источники с публичных трекеров). Перед использованием ссылки прочтите, пожалуйста Пользовательское соглашение, а также как можно дольше оставайтесь на раздаче! Для того, чтобы скачать сам торрент-файл (который видит больше источников), а также для того, чтобы поблагодарить релизера, вам необходимо зарегистрироваться. Если регистрироваться лень - вы можете также попробовать скачать релиз по нашим партнерским ссылкам ниже.

[underverse.su].t66275.torrent
Трекер: Зарегистрирован   [ 17.05.2016 22:18 ]  

Статус: T временная (by makkol at 17.05.2016 23:29)
Поблагодарили: пока никто не поблагодарил...
Тип торрента: публичный - доступные источники с открытых трекеров: 
Размер: 1,36 GB (занимает 0,31 DVDR, для записи нужно 1 болванка DVDR/RW)
 
 
Похожие темы
Форум Тема Автор Торрент Отв. Посл. сооб.
T Зарубежное кино [DVDRip, Low-Res HDRip, и т.д.] Запрос в друзья / Friend Request (Симон Ферхоэвен) [2016 г., триллер, ужасы, HDRip] Dub (Line) makkol
689 | 10

0 | 529

14

22.06.2016 13:42

T Зарубежное кино [DVDRip, Low-Res HDRip, и т.д.] Запрос в друзья / Friend Request (Симон Ферхоэвен) [2016 г., триллер, HDRip] Dub (iTunes) makkol
5 | 0

0 | 435

6

24.06.2016 22:25

T Зарубежное кино [HDDVDRip / BDRip / WEB-DL / HDTV 1080/720р] Запрос в друзья / Friend Request (Симон Ферхоэвен) [2016 г., триллер, BDRip 720p] Dub (iTunes) + Original makkol
287 | 4

0 | 516

21

24.06.2016 22:33

T Зарубежное кино [HDDVDRip / BDRip / WEB-DL / HDTV 1080/720р] Запрос в друзья / Friend Request (Симон Ферхоэвен / Simon Verhoeven) [2016 г., ужасы, триллер, BDRip 1080p] Dub (iTunes) + Original (Ger) 90ytr90
32 | 4

0 | 537

4

11.08.2016 19:05


Яндекс.Метрика powered by Sphinx


В Н И М А Н И Е
Сайт не распространяет и не хранит электронные версии произведений, а лишь бесплатно и без коммерческой выгоды (не требуя взамен платы,
SMS и т.д.) предоставляет доступ к создаваемому пользователями каталогу ссылок на торрент-файлы, которые содержат только списки хеш-сумм.
Убедительная просьба с жалобами обращаться напрямую к пользователю, разместившему торрент файл.

Вверх