Loading...
Error

Волынь 43 Геноцид "во славу Украине" [2015 г., документальный, TVRip]

Статистика раздачи
Размер:  692 MB   |    Зарегистрирован:  6 месяцев   |    Скачан:  6 раз
Сидов:  1  |  0 KB/s  ]   Личеров:  0  |  0 KB/s  ]

* - сиды/пиры с внешних источников

   
 
Автор Сообщение

матроскин Пол:Муж

17-Май-2016 13:29

Волынь 43 Геноцид "во славу Украине"


Год выпуска: 2015
Жанр: документальный
Страна: Россия
Выпущено: ВГТРК
Сюжет фильма:
В 1943 году вдалеке от линии фронта развернулась одна из самых крупных тыловых трагедий Второй мировой войны. На Волыни поляков, евреев, русских, армян рубили топорами, сжигали заживо, зверски пытали. Делали это не немецкие подразделения, а отряды Организации украинских националистов (ОУН) и УПА и их главари Степан Бандера и Роман Шухевич. Сегодня они настоящие герои для украинских националистов.

Кто и зачем финансировал создание ОУН? Почему о Волынской резне молчат политики Украины и Польши? Кто дал указание вырезать семьи, села, деревни и устроить этническую бойню? Почему с особой жестокостью уничтожали женщин и детей? Людей убивали на львовской, тернопольской, станиславской землях. По самым скромным подсчетам - 200 000 человек.

Те события не просто история. Жестокость погромщиков в Одессе, сжигавших людей в Доме профсоюзов, варварские бомбежки Славянска, оголтелость Майдана – трагические события, продолжающие зверства Волыни. В фильме очевидцы событий, ветераны войны, историки, а также уникальные кадры допросов украинских националистов раскроют те причины, по которым это стало возможным.
Качество видео: TVRip

Продолжительность: 00:48:18
Формат: avi
Видео: XviD, 720x400, 1799 kbps
Аудио: русский, оригинал, AC3 2.0, 192 kbps

Код:

General
Complete name                    : C:\Users\Ohrana\Desktop\Волынь 43 Геноцид во славу Украине.avi
Format                           : AVI
Format/Info                      : Audio Video Interleave
File size                        : 692 MiB
Duration                         : 48mn 18s
Overall bit rate                 : 2 002 Kbps
Writing application              : VirtualDubMod 1.5.10.3 | www.virtualdub-fr.org || (build 2550/release)
Writing library                  : VirtualDubMod build 2550/release

Video
ID                               : 0
Format                           : MPEG-4 Visual
Format profile                   : Streaming Video@L1
Format settings, BVOP            : Yes
Format settings, QPel            : No
Format settings, GMC             : No warppoints
Format settings, Matrix          : Default (H.263)
Codec ID                         : XVID
Codec ID/Hint                    : XviD
Duration                         : 48mn 18s
Bit rate                         : 1 800 Kbps
Width                            : 720 pixels
Height                           : 400 pixels
Display aspect ratio             : 16/9
Frame rate                       : 25.000 fps
Resolution                       : 24 bits
Colorimetry                      : 4:2:0
Scan type                        : Progressive
Bits/(Pixel*Frame)               : 0.250
Stream size                      : 622 MiB (90%)
Writing library                  : XviD 1.2.1 (UTC 2008-12-04)

Audio
ID                               : 1
Format                           : AC-3
Format/Info                      : Audio Coding 3
Codec ID                         : 2000
Duration                         : 48mn 18s
Bit rate mode                    : Constant
Bit rate                         : 192 Kbps
Channel(s)                       : 2 channels
Channel positions                : L R
Sampling rate                    : 48.0 KHz
Stream size                      : 66.3 MiB (10%)
Alignment                        : Split accross interleaves
Interleave, duration             : 40 ms (1.00 video frame)
Interleave, preload duration     : 500 ms

picpicpicpicpicpic
Для увеличения картинки щелкните мышкой по превью

Этот торрент недоступен для скачивания без регистрации, однако доступен по публичной magnet-ссылке (источники с публичных трекеров). Перед использованием ссылки прочтите, пожалуйста Пользовательское соглашение, а также как можно дольше оставайтесь на раздаче! Для того, чтобы скачать сам торрент-файл (который видит больше источников), а также для того, чтобы поблагодарить релизера, вам необходимо зарегистрироваться. Если регистрироваться лень - вы можете также попробовать скачать релиз по нашим партнерским ссылкам ниже.

[underverse.su].t66252.torrent
Трекер: Зарегистрирован   [ 17.05.2016 13:29 ]  

Статус: проверено (by матроскин at 17.05.2016 13:30)
Поблагодарили: пока никто не поблагодарил...
Тип торрента: публичный - доступные источники с открытых трекеров: 
Размер: 692 MB (занимает 0,15 DVDR, для записи нужно 1 болванка DVDR/RW)
 
 

матроскин Пол:Муж

17-Май-2016 13:30

Качайте и смотрите документальное кино !




Яндекс.Метрика powered by Sphinx


В Н И М А Н И Е
Сайт не распространяет и не хранит электронные версии произведений, а лишь бесплатно и без коммерческой выгоды (не требуя взамен платы,
SMS и т.д.) предоставляет доступ к создаваемому пользователями каталогу ссылок на торрент-файлы, которые содержат только списки хеш-сумм.
Убедительная просьба с жалобами обращаться напрямую к пользователю, разместившему торрент файл.

Вверх