Loading...
Error

Дом, в котором он живет. Владимир Земляникин [2009 г., документальный, биография, культура, история, TVRip]

Статистика раздачи
Размер:  442 MB   |    Зарегистрирован:  6 месяцев   |    Скачан:  1 раз

Полного источника не было: 1 месяц 15 дней

Сидов:  0  |  0 KB/s  ]   Личеров:  0  |  0 KB/s  ]

* - сиды/пиры с внешних источников

   
 
Автор Сообщение

ARI71 Пол:Муж

17-Май-2016 10:39

Дом, в котором он живет. Владимир Земляникин


Год выпуска: 2009
Жанр: документальный, биография, культура, история
Страна: Россия Телеканал "Россия"
Режиссер: Мария Колоколова
В ролях: Владимир Земляникин, Александр Шпагин, Людмила Иванова, Олег Басилашвили
Сюжет фильма:
Фильм о непростой судьбе заслуженного артиста России Владимира Михайловича Земляникина. Он играл в культовом фильме - Дом в котором я живу. И в реальной жизни он обладал именно теми качествами героя, которого сыграл. Помешало ли это ему в дальнейшем успехе потом? Узнайте, посмотрев этот документальный фильм.

Владимир Михайлович Земляникин (род. 1933) — актёр театра и кино. Заслуженный артист Российской Федерации (1994)

Качество видео: TVRip

Продолжительность: 00:44:05
Формат: AVI
Видео: DivX 4, 480x360, ~1199 kbps
Аудио: русский, (оригинал), AC3 2.0, ~192.00 kbps

Код:

Общее
Полное имя : D:\Zemlyanikin_[*другой трекер*]\Zemlyanikin.avi
Формат : AVI
Формат/Информация : Audio Video Interleave
Размер файла : 442 Мбайт
Продолжительность : 44 м.
Общий поток : 1402 Кбит/сек
Программа кодирования : Lavf52.39.2

Видео
Идентификатор : 0
Формат : MPEG-4 Visual
Профиль формата : Simple@L1
Параметр BVOP формата : Нет
Параметр QPel формата : Нет
Параметр GMC формата : Без точки перехода
Параметр матрицы формата : Default (H.263)
Идентификатор кодека : DIVX
Идентификатор кодека/Информация : Project Mayo
Идентификатор кодека/Подсказка : DivX 4
Продолжительность : 44 м.
Битрейт : 1199 Кбит/сек
Ширина : 480 пикселей
Высота : 360 пикселей
Соотношение сторон : 4:3
Частота кадров : 25,000 кадров/сек
Цветовое пространство : YUV
Субдискретизация насыщенности : 4:2:0
Битовая глубина : 8 бит
Тип развёртки : Прогрессивная
Метод сжатия : С потерями
Бит/(Пиксели*Кадры) : 0.278
Размер потока : 378 Мбайт (86%)
Библиотека кодирования : Lavc52.37.1

Аудио
Идентификатор : 1
Формат : AC-3
Формат/Информация : Audio Coding 3
Расширение режима : CM (complete main)
Параметр Endianness формата : Big
Идентификатор кодека : 2000
Продолжительность : 44 м.
Вид битрейта : Постоянный
Битрейт : 192 Кбит/сек
Каналы : 2 канала
Расположение каналов : Front: L R
Частота : 48,0 КГц
Битовая глубина : 16 бит
Метод сжатия : С потерями
Размер потока : 60,5 Мбайт (14%)
Выравнивание : Соединение по промежуткам
Продолжительность промежутка : 32 мс. (0,80 видеокадр)
picpicpicpicpic
Для увеличения картинки щелкните мышкой по превью

Этот торрент недоступен для скачивания без регистрации, однако доступен по публичной magnet-ссылке (источники с публичных трекеров). Перед использованием ссылки прочтите, пожалуйста Пользовательское соглашение, а также как можно дольше оставайтесь на раздаче! Для того, чтобы скачать сам торрент-файл (который видит больше источников), а также для того, чтобы поблагодарить релизера, вам необходимо зарегистрироваться. Если регистрироваться лень - вы можете также попробовать скачать релиз по нашим партнерским ссылкам ниже.

[underverse.su].t66248.torrent
Трекер: Зарегистрирован   [ 17.05.2016 10:39 ]  

Статус: проверено (by матроскин at 17.05.2016 10:54)
Поблагодарили: пока никто не поблагодарил...
Тип торрента: публичный - доступные источники с открытых трекеров: 
Размер: 442 MB (занимает 0,1 DVDR, для записи нужно 1 болванка DVDR/RW)
 
 

Яндекс.Метрика powered by Sphinx


В Н И М А Н И Е
Сайт не распространяет и не хранит электронные версии произведений, а лишь бесплатно и без коммерческой выгоды (не требуя взамен платы,
SMS и т.д.) предоставляет доступ к создаваемому пользователями каталогу ссылок на торрент-файлы, которые содержат только списки хеш-сумм.
Убедительная просьба с жалобами обращаться напрямую к пользователю, разместившему торрент файл.

Вверх