Loading...
Error

Сражения Второй Мировой войны (01-10 серий из 10) [2013-2016 г., документальный, военный, реконструкция, WEB-DL 720p]

Статистика раздачи
Размер:  2,88 GB   |    Зарегистрирован:  6 месяцев   |    Скачан:  13 раз

Полного источника не было: 15 дней

Сидов:  0  |  0 KB/s  ]   Личеров:  0  |  0 KB/s  ]

* - сиды/пиры с внешних источников

   
 
Автор Сообщение

ARI71 Пол:Муж

17-Май-2016 10:10

Сражения Второй Мировой войны (01-10 серий из 10)


Год выпуска: 2013-2016
Жанр: документальный, военный, реконструкция
Страна: Беларусь Wargaming TV
Сюжет фильма:
Немало сражений Второй мировой войны вошли в историю. Сталинградская битва, Курская дуга, крупнейшее танковое сражение под Прохоровкой – эти и другие эпические реконструкции в цикле "Сражения Второй Мировой войны" от Wargaming. А поскольку подавляющее большинство машин в World of Tanks относятся как раз к этому периоду, то будет логично со стороны Wargaming рассказать вам о самых знаменитых битвах. Ведь, как известно, тот, кто не знает своей истории, не имеет будущего…
Качество видео: WEB-DL 720p

Продолжительность: 10 x ~ 00:20:00
Формат: MKV
Видео: V_MPEG4/ISO/AVC, 1280x720, ~1610 kbps
Аудио: русский, (оригинал), AC3 2.0, ~224.00 kbps
(тех. данные всех серий идентичны)
01. Весна 1945-го. Штурм Зееловских высот
К апрелю 1945 года нацистская Германия оказалась на грани полного разгрома. Штурм германской столицы, невзирая ни на что, было решено начать раньше запланированного срока. Но для этого предстояло преодолеть самые трудные – последние километры, где противник готов был биться на смерть за каждый город, каждый дом, каждую пядь земли

02. Сандомирский плацдарм. Истребители "Тигров". 1-2 части
В августе 1944 года советские войска вошли на территорию Польши и захватили плацдармы на западном берегу реки Вислы около города Сандомир. Танковый удар на юге Польши нарушил все планы Вермахта. Немцы рассчитывали остановить противника на восточном берегу и создать мощную оборонительную линию. Выигранное время позволило бы оснастить танковые войска новейшим чудо-оружием Wunderwaffe. Баранув-Сандомирские плацдармы Красной Армии меняли ситуацию в корне!

03. Решающая танковая битва на Курской дуге
В июле 1943 года в условиях строжайшей секретности рождался немецкий план «Цитадель». Командование Вермахта рассчитывало взять в кольцо и уничтожить Центральный и Воронежский фронты Красной Армии. 5 июля 4-я немецкая танковая армия в составе дивизий СС «Райх», «Адольф Гитлер», «Мертвая голова» и «Великая Германия» двинулась на штурм главной полосы советской обороны, нанося основной удар на Обоянь. От того, сумеют ли выстоять против элитных танковых соединений немцев бойцы 1-й танковой армии генерала Катукова, во многом зависел исход всей войны...

04. Штурм самой неприступной крепости Третьего рейха – Кёнигсберг
Зимой 1945 года Советские войска с боями подошли к Кёнигсбергу. Город был блокирован с востока, юга и запада. Ликвидация этого анклава в Восточной Пруссии требовалась раньше, чем взятие Берлина, тогда командование Вермахта будет вынуждено принять безоговорочную капитуляцию. Ключ к будущему миру лежал за неприступными бастионами прусской столицы. И этот ключ предстояло добыть. Начался штурм Кёнигсберга.

05. Битва при Балатоне. Разгром немецких танков.
Зимой 1945 года Красная Армия громит немецкие войска на всех фронтах.
13 февраля взят Будапешт. Следующей целью на южном пути к Берлину значится Вена.
Опасность захвата нависает над последними нефтяными месторождениями у озера Балатон, с их утратой Рейх остаётся без нефтепродуктов.
Несмотря на прямую угрозу Берлину, Гитлер перебрасывает под Балатон элитную 6-ю танковую армию СС. Советским соединениям между Балатоном и Дунаем предстоит выдержать мощный удар, в который немцы вложили последние резервы и отчаяние обречённых!

06. Сражение под Прохоровкой. Помним все [World of Tanks] 12 июля 2014 год
12 июля — памятная дата военной истории. В этот день в 1943 году под Прохоровкой состоялось одно из крупнейших танковых сражений Второй мировой войны. Команда Wargaming TV подготовила специальный выпуск, посвящённый этому историческому событию.

07. 70 лет освобождения Минска. Помним все [World of Tanks] 3 июля 2014 год
3 июля 1944 года, ровно 70 лет назад, Минск был полностью освобождён от немецко-фашистских захватчиков! Команда Wargaming TV подготовила специальный выпуск, посвящённый этому историческому событию. Сколько бы лет ни прошло, мы будем помнить стойкость и мужество тех, кто защищал нашу страну.

08. Ленинградский День Победы! 70 лет. Помним всё. [World of Tanks]
27 января 2014 года важный и торжественный день в истории Великой Отечественной Войны - 70 лет со дня полного снятия блокады Ленинграда! Команда Wargaming подготовила специальный выпуск, посвящённый одному из самых трагических событий Великой Отечественной войны. Помним и чтим!

09. Последняя битва войны. Берлин
Танкисты, в преддверии Дня Победы команда Wargaming TV подготовила специальный выпуск, посвящённый взятию Берлина — последнему крупному сражению Великой Отечественной войны

Код:

Общее
Уникальный идентификатор : 160451180266238563910329386881194764899 (0x78B5C5F4F00B7B3C22EAADECECA1AA63)
Полное имя : D:\Сражения Второй Мировой войны.2013-2016.WEB-DL720p.GeneralFilm\01.Весна 1945-го.Штурм Зееловских высот.2016.WEB-DL720p.GeneralFilm.mkv
Формат : Matroska
Версия формата : Version 4 / Version 2
Размер файла : 329 Мбайт
Продолжительность : 24 м.
Общий поток : 1872 Кбит/сек
Программа кодирования : Lavf56.36.100
Библиотека кодирования : Lavf56.36.100

Видео
Идентификатор : 1
Формат : AVC
Формат/Информация : Advanced Video Codec
Профиль формата : Main@L3.1
Параметр CABAC формата : Да
Параметр ReFrames формата : 3 кадра
Идентификатор кодека : V_MPEG4/ISO/AVC
Продолжительность : 24 м.
Битрейт : 1610 Кбит/сек
Ширина : 1280 пикселей
Высота : 720 пикселей
Соотношение сторон : 16:9
Режим частоты кадров : Постоянный
Частота кадров : 25,000 кадров/сек
Цветовое пространство : YUV
Субдискретизация насыщенности : 4:2:0
Битовая глубина : 8 бит
Тип развёртки : Прогрессивная
Бит/(Пиксели*Кадры) : 0.070
Размер потока : 283 Мбайт (86%)
Default : Да
Forced : Нет
Цветовой диапазон : Limited
Основные цвета : BT.709
Характеристики трансфера : BT.709
Коэффициенты матрицы : BT.709

Аудио
Идентификатор : 2
Формат : AC-3
Формат/Информация : Audio Coding 3
Расширение режима : CM (complete main)
Параметр Endianness формата : Big
Идентификатор кодека : A_AC3
Продолжительность : 24 м.
Вид битрейта : Постоянный
Битрейт : 224 Кбит/сек
Каналы : 2 канала
Расположение каналов : Front: L R
Частота : 44,1 КГц
Метод сжатия : С потерями
Задержка видео : 29 мс.
Размер потока : 39,4 Мбайт (12%)
Default : Да
Forced : Нет
picpicpicpicpic
Для увеличения картинки щелкните мышкой по превью

Этот торрент недоступен для скачивания без регистрации, однако доступен по публичной magnet-ссылке (источники с публичных трекеров). Перед использованием ссылки прочтите, пожалуйста Пользовательское соглашение, а также как можно дольше оставайтесь на раздаче! Для того, чтобы скачать сам торрент-файл (который видит больше источников), а также для того, чтобы поблагодарить релизера, вам необходимо зарегистрироваться. Если регистрироваться лень - вы можете также попробовать скачать релиз по нашим партнерским ссылкам ниже.

[underverse.su].t66247.torrent
Трекер: Зарегистрирован   [ 17.05.2016 10:10 ]  

Статус: проверено (by матроскин at 17.05.2016 10:24)
Поблагодарили: пока никто не поблагодарил...
Тип торрента: публичный - доступные источники с открытых трекеров: 
Размер: 2,88 GB (занимает 0,66 DVDR, для записи нужно 1 болванка DVDR/RW)
 
 

Яндекс.Метрика powered by Sphinx


В Н И М А Н И Е
Сайт не распространяет и не хранит электронные версии произведений, а лишь бесплатно и без коммерческой выгоды (не требуя взамен платы,
SMS и т.д.) предоставляет доступ к создаваемому пользователями каталогу ссылок на торрент-файлы, которые содержат только списки хеш-сумм.
Убедительная просьба с жалобами обращаться напрямую к пользователю, разместившему торрент файл.

Вверх