Loading...
Error

Предатели. Николай Чернов [2015 г., документальный, TVRip]

Статистика раздачи
Размер:  473 MB   |    Зарегистрирован:  6 месяцев   |    Скачан:  1 раз

Полного источника не было: 8 часов

Сидов:  0  |  0 KB/s  ]   Личеров:  0  |  0 KB/s  ]

* - сиды/пиры с внешних источников

   
 
Автор Сообщение

матроскин Пол:Муж

17-Май-2016 09:33

Предатели. Николай Чернов


Год выпуска: 2015
Жанр: документальный
Страна: Россия
Режиссер: Олег Бараночников, Юрий Устинов
Ведущий: Андрей Луговой
Сюжет фильма:
Захватывающий документальный детектив о самых громких шпионских разоблачениях ХХ века. Кто они – продавшиеся иностранной разведке, чем руководствовались, предавая Родину, коллег и даже семью? На совести каждого из них - сотни загубленных жизней, многомиллионный ущерб, нанесенный благосостоянию и обороноспособности страны. Как они попадали на удочку к иностранной резидентуре? Как их разоблачали органы НКВД и КГБ СССР? Каждая серия рассказывает историю одного гражданина СССР, занимавшегося шпионажем на Родине и за ее пределами в пользу иностранного государства.
Качество видео: TVRip

Продолжительность: 00:38:01
Формат: avi
Видео: XviD, 720x400, 1537 kbps
Аудио: русский, оригинал, AC3 2.0, 192 kbps

Код:

General
Complete name                    : C:\Users\Ohrana\Desktop\Предатели. Николай Чернов.avi
Format                           : AVI
Format/Info                      : Audio Video Interleave
File size                        : 473 MiB
Duration                         : 38mn 1s
Overall bit rate                 : 1 740 Kbps
Writing application              : VirtualDubMod 1.5.10.3 | www.virtualdub-fr.org || (build 2550/release)
Writing library                  : VirtualDubMod build 2550/release

Video
ID                               : 0
Format                           : MPEG-4 Visual
Format profile                   : Streaming Video@L1
Format settings, BVOP            : Yes
Format settings, QPel            : No
Format settings, GMC             : No warppoints
Format settings, Matrix          : Custom
Codec ID                         : XVID
Codec ID/Hint                    : XviD
Duration                         : 38mn 1s
Bit rate                         : 1 538 Kbps
Width                            : 720 pixels
Height                           : 400 pixels
Display aspect ratio             : 16/9
Frame rate                       : 25.000 fps
Resolution                       : 24 bits
Colorimetry                      : 4:2:0
Scan type                        : Progressive
Bits/(Pixel*Frame)               : 0.214
Stream size                      : 418 MiB (88%)
Writing library                  : XviD 73

Audio
ID                               : 1
Format                           : AC-3
Format/Info                      : Audio Coding 3
Codec ID                         : 2000
Duration                         : 38mn 1s
Bit rate mode                    : Constant
Bit rate                         : 192 Kbps
Channel(s)                       : 2 channels
Channel positions                : L R
Sampling rate                    : 48.0 KHz
Stream size                      : 52.2 MiB (11%)
Alignment                        : Split accross interleaves
Interleave, duration             : 40 ms (1.00 video frame)
Interleave, preload duration     : 500 ms

picpicpicpicpicpic
Для увеличения картинки щелкните мышкой по превью

Этот торрент недоступен для скачивания без регистрации, однако доступен по публичной magnet-ссылке (источники с публичных трекеров). Перед использованием ссылки прочтите, пожалуйста Пользовательское соглашение, а также как можно дольше оставайтесь на раздаче! Для того, чтобы скачать сам торрент-файл (который видит больше источников), а также для того, чтобы поблагодарить релизера, вам необходимо зарегистрироваться. Если регистрироваться лень - вы можете также попробовать скачать релиз по нашим партнерским ссылкам ниже.

[underverse.su].t66245.torrent
Трекер: Зарегистрирован   [ 17.05.2016 09:33 ]  

Статус: проверено (by матроскин at 17.05.2016 09:34)
Поблагодарили: 1 человек
Тип торрента: публичный - доступные источники с открытых трекеров: 
Размер: 473 MB (занимает 0,11 DVDR, для записи нужно 1 болванка DVDR/RW)
 
 
Похожие темы
Форум Тема Автор Торрент Отв. Посл. сооб.
Исторические фильмы Предатели. Олег Калугин [2015 г., документальный, TVRip] матроскин
2 | 0

1 | 371

4

17.05.2016 09:04

Исторические фильмы Предатели. Анатолий Голицын [2015 г., документальный, TVRip] матроскин
1 | 0

1 | 351

1

17.05.2016 13:04

матроскин Пол:Муж

17-Май-2016 09:34

Качайте и смотрите документальное кино !




Яндекс.Метрика powered by Sphinx


В Н И М А Н И Е
Сайт не распространяет и не хранит электронные версии произведений, а лишь бесплатно и без коммерческой выгоды (не требуя взамен платы,
SMS и т.д.) предоставляет доступ к создаваемому пользователями каталогу ссылок на торрент-файлы, которые содержат только списки хеш-сумм.
Убедительная просьба с жалобами обращаться напрямую к пользователю, разместившему торрент файл.

Вверх