Loading...
Error

Хиросима. Мир по американски [2015 г., документальный, TVRip]

Статистика раздачи
Размер:  512 MB   |    Зарегистрирован:  6 месяцев   |    Скачан:  2 раза

Полного источника не было: 2 часа 57 минут

Сидов:  0  |  0 KB/s  ]   Личеров:  0  |  0 KB/s  ]

* - сиды/пиры с внешних источников

   
 
Автор Сообщение

матроскин Пол:Муж

17-Май-2016 07:00

Хиросима. Мир по американски


Год выпуска: 2015
Жанр: документальный
Страна: Россия
Выпущено: Тв "Звезда"
Сюжет фильма:
Сенсационное историческое расследование телеканала «Звезда». Страшной трагедии в японских городах Хиросиме и Нагасаки исполнилось 70 лет. Но США так и не ответили за преступление тысячелетия. Более того – летчики, которые сбрасывали бомбы на Японию, стали национальными героями, а жители Америки, как и прежде, не видят в этих событиях ничего трагичного.
Качество видео: TVRip

Продолжительность: 00:25:04
Формат: avi
Видео: DivX 4, 720x400, 2587 kbps
Аудио: русский, оригинал, MP3 2.0, 256 kbps

Код:

General
Complete name                    : C:\Users\Ohrana\Desktop\Хиросима. Мир по американски.avi
Format                           : AVI
Format/Info                      : Audio Video Interleave
File size                        : 512 MiB
Duration                         : 25mn 4s
Overall bit rate                 : 2 856 Kbps
Writing application              : Lavf56.25.101

Video
ID                               : 0
Format                           : MPEG-4 Visual
Format profile                   : Simple@L1
Format settings, BVOP            : No
Format settings, QPel            : No
Format settings, GMC             : No warppoints
Format settings, Matrix          : Default (H.263)
Codec ID                         : DIVX
Codec ID/Info                    : Project Mayo
Codec ID/Hint                    : DivX 4
Duration                         : 25mn 4s
Bit rate                         : 2 587 Kbps
Width                            : 720 pixels
Height                           : 400 pixels
Display aspect ratio             : 16/9
Frame rate                       : 25.000 fps
Resolution                       : 24 bits
Colorimetry                      : 4:2:0
Scan type                        : Progressive
Bits/(Pixel*Frame)               : 0.359
Stream size                      : 464 MiB (91%)
Writing library                  : Lavc56.26.100

Audio
ID                               : 1
Format                           : MPEG Audio
Format version                   : Version 1
Format profile                   : Layer 3
Codec ID                         : 55
Codec ID/Hint                    : MP3
Duration                         : 25mn 4s
Bit rate mode                    : Constant
Bit rate                         : 256 Kbps
Channel(s)                       : 2 channels
Sampling rate                    : 44.1 KHz
Resolution                       : 16 bits
Stream size                      : 45.9 MiB (9%)
Alignment                        : Aligned on interleaves
Interleave, duration             : 26 ms (0.65 video frame)
Interleave, preload duration     : 78 ms
Writing library                  : LAME3.99.5

picpicpicpicpicpic
Для увеличения картинки щелкните мышкой по превью

Этот торрент недоступен для скачивания без регистрации, однако доступен по публичной magnet-ссылке (источники с публичных трекеров). Перед использованием ссылки прочтите, пожалуйста Пользовательское соглашение, а также как можно дольше оставайтесь на раздаче! Для того, чтобы скачать сам торрент-файл (который видит больше источников), а также для того, чтобы поблагодарить релизера, вам необходимо зарегистрироваться. Если регистрироваться лень - вы можете также попробовать скачать релиз по нашим партнерским ссылкам ниже.

[underverse.su].t66242.torrent
Трекер: Зарегистрирован   [ 17.05.2016 07:00 ]  

Статус: проверено (by матроскин at 17.05.2016 07:01)
Поблагодарили: 1 человек
Тип торрента: публичный - доступные источники с открытых трекеров: 
Размер: 512 MB (занимает 0,11 DVDR, для записи нужно 1 болванка DVDR/RW)
 
 

матроскин Пол:Муж

17-Май-2016 08:29

Качайте и смотрите документальное кино !




Яндекс.Метрика powered by Sphinx


В Н И М А Н И Е
Сайт не распространяет и не хранит электронные версии произведений, а лишь бесплатно и без коммерческой выгоды (не требуя взамен платы,
SMS и т.д.) предоставляет доступ к создаваемому пользователями каталогу ссылок на торрент-файлы, которые содержат только списки хеш-сумм.
Убедительная просьба с жалобами обращаться напрямую к пользователю, разместившему торрент файл.

Вверх