Loading...
Error

Борис Бабочкин. Без скидок на возраст [2004 г., документальный, биография, театр, кинематограф, история, SatRip]

Статистика раздачи
Размер:  425 MB   |    Зарегистрирован:  6 месяцев   |    Скачан:  0 раз

Полного источника не было: 6 месяцев

Сидов:  0  |  0 KB/s  ]   Личеров:  0  |  0 KB/s  ]

* - сиды/пиры с внешних источников

   
 
Автор Сообщение

ARI71 Пол:Муж

16-Май-2016 10:24

Борис Бабочкин. Без скидок на возраст


Год выпуска: 2004
Жанр: документальный, биография, театр, кинематограф, история
Страна: Россия ГТРК "Культура"
Режиссер: Людмила Чеснокова
В ролях: Борис Бабочкин
Сюжет фильма:
К 110 летию со дня рождения выдающегося актёра и режиссёра театра и кино, педагога, Народного артиста СССР , Героя Социалистического Труда - Бориса Андреевича Бабочкина. Борис Бабочкин - художник счастливой судьбы, проживший жизнь в ореоле всеобщего почитания. Так долгие годы думали многие, кроме очень близких ему людей. В тридцать лет он сыграл Чапаева, познал творческую радость и славу, какие мало кому выпадали на долю. Один этот образ сделал его имя легендарным. А сколько еще было незабываемых ролей в театре, кино, на телевидении, ярких неповторимых режиссерских работ... В передаче принимают участие: Э. Быстрицкая, Ю. Соломин, В. Коршунов, Б. Любимов.

Бори́с Андре́евич Ба́бочкин (1904, Саратов — 1975, Москва) — советский российский актёр и режиссёр театра и кино, педагог. Народный артист СССР (1963), Герой Социалистического Труда (1974). Лауреат двух Сталинских (1941, 1951) и Государственной (1977 — посмертно) премий.

Качество видео: SatRip

Продолжительность: 00:39:47
Формат: AVI
Видео: XviD, 704x528, ~1394 kbps
Аудио: русский, (оригинал), MP3 2.0, ~128.00 kbps

Код:

Общее
Полное имя : D:\Борис Бабочкин. Без скидок на возраст.2004.SATRip.kosta52.avi
Формат : AVI
Формат/Информация : Audio Video Interleave
Размер файла : 425 Мбайт
Продолжительность : 38 м.
Общий поток : 1532 Кбит/сек
Программа кодирования : VirtualDubMod 1.5.10.3 | www.virtualdub-fr.org || (build 2550/release)
Библиотека кодирования : VirtualDubMod build 2550/release

Видео
Идентификатор : 0
Формат : MPEG-4 Visual
Профиль формата : Advanced Simple@L5
Параметр BVOP формата : 2
Параметр QPel формата : Нет
Параметр GMC формата : Без точки перехода
Параметр матрицы формата : Default (MPEG)
Идентификатор кодека : XVID
Идентификатор кодека/Подсказка : XviD
Продолжительность : 38 м.
Битрейт : 1394 Кбит/сек
Ширина : 704 пикселя
Высота : 528 пикселей
Соотношение сторон : 4:3
Частота кадров : 25,000 кадров/сек
Цветовое пространство : YUV
Субдискретизация насыщенности : 4:2:0
Битовая глубина : 8 бит
Тип развёртки : Прогрессивная
Метод сжатия : С потерями
Бит/(Пиксели*Кадры) : 0.150
Размер потока : 387 Мбайт (91%)
Библиотека кодирования : XviD 1.2.1 (UTC 2008-12-04)

Аудио
Идентификатор : 1
Формат : MPEG Audio
Версия формата : Version 1
Профиль формата : Layer 3
Идентификатор кодека : 55
Идентификатор кодека/Подсказка : MP3
Продолжительность : 38 м.
Вид битрейта : Постоянный
Битрейт : 128 Кбит/сек
Каналы : 2 канала
Частота : 48,0 КГц
Метод сжатия : С потерями
Размер потока : 35,5 Мбайт (8%)
Выравнивание : Соединение по промежуткам
Продолжительность промежутка : 40 мс. (1,00 видеокадр)
Время предзагрузки промежутка : 504 мс.
Библиотека кодирования : LAME3.99r
Настройки программы : -m s -V 4 -q 2 -lowpass 17 -b 128
picpicpicpicpic
Для увеличения картинки щелкните мышкой по превью

Этот торрент недоступен для скачивания без регистрации, однако доступен по публичной magnet-ссылке (источники с публичных трекеров). Перед использованием ссылки прочтите, пожалуйста Пользовательское соглашение, а также как можно дольше оставайтесь на раздаче! Для того, чтобы скачать сам торрент-файл (который видит больше источников), а также для того, чтобы поблагодарить релизера, вам необходимо зарегистрироваться. Если регистрироваться лень - вы можете также попробовать скачать релиз по нашим партнерским ссылкам ниже.

[underverse.su].t66214.torrent
Трекер: Зарегистрирован   [ 16.05.2016 10:24 ]  

Статус: проверено (by makkol at 16.05.2016 10:43)
Поблагодарили: пока никто не поблагодарил...
Тип торрента: публичный - доступные источники с открытых трекеров: 
Размер: 425 MB (занимает 0,09 DVDR, для записи нужно 1 болванка DVDR/RW)
 
 

Яндекс.Метрика powered by Sphinx


В Н И М А Н И Е
Сайт не распространяет и не хранит электронные версии произведений, а лишь бесплатно и без коммерческой выгоды (не требуя взамен платы,
SMS и т.д.) предоставляет доступ к создаваемому пользователями каталогу ссылок на торрент-файлы, которые содержат только списки хеш-сумм.
Убедительная просьба с жалобами обращаться напрямую к пользователю, разместившему торрент файл.

Вверх