Loading...
Error

Бандеровцы. Палачи не бывают героями [2014 г., документальный, TVRip]

Статистика раздачи
Размер:  693 MB   |    Зарегистрирован:  6 месяцев   |    Скачан:  6 раз
Сидов:  1  |  0 KB/s  ]   Личеров:  0  |  0 KB/s  ]

* - сиды/пиры с внешних источников

   
 
Автор Сообщение

матроскин Пол:Муж

15-Май-2016 16:43

Бандеровцы. Палачи не бывают героями


Год выпуска: 2014
Жанр: документальный
Страна: Россия
Режиссер: Евгений Зайченко
Ведущий: Аркадий Мамонтов
Сюжет фильма:
70 лет назад, в 1945 году, Красная Армия победила нацизм, и казалось, что на территории Советского Союза никогда не поднимет голову зверь по имени Бандеровщина. Однако недобитые фашисты сохранили ядовитые зерна нацизма на Украине.

В своем фильме мы расскажем историю основоположника украинского национализма и нацизма Степана Бандеры. Но не только. Мы рассмотрим, из каких корней возникло само движение украинских националистов, кто его создавал и почему оно не исчезло после Великой Отечественной войны.

В фильме – эксклюзивные документы, найденные вместе с Российским военно-историческим обществом. Они станут основой фильма.
Эти документы были рассекречены совсем недавно. А хранились они в архивах России и Украины.

Съемочная группа стала первой из российских журналистов, кто сумел побывать в музее Степана Бандеры, открытом в центре Лондона, и увидеть уникальные экспонаты.
Качество видео: TVRip

Продолжительность: 00:50:00
Формат: avi
Видео: XviD, 720x400, 1799 kbps
Аудио: русский, оригинал, MP3 2.0, 128 kbps

Код:

General
Complete name                    : C:\Users\Ohrana\Desktop\Бандеровцы. Палачи не бывают героями.avi
Format                           : AVI
Format/Info                      : Audio Video Interleave
File size                        : 693 MiB
Duration                         : 50mn 0s
Overall bit rate                 : 1 937 Kbps
Writing application              : VirtualDubMod 1.5.10.3 | www.virtualdub-fr.org || (build 2550/release)
Writing library                  : VirtualDubMod build 2550/release

Video
ID                               : 0
Format                           : MPEG-4 Visual
Format profile                   : Streaming Video@L1
Format settings, BVOP            : Yes
Format settings, QPel            : No
Format settings, GMC             : No warppoints
Format settings, Matrix          : Default (H.263)
Codec ID                         : XVID
Codec ID/Hint                    : XviD
Duration                         : 50mn 0s
Bit rate                         : 1 800 Kbps
Width                            : 720 pixels
Height                           : 400 pixels
Display aspect ratio             : 16/9
Frame rate                       : 25.000 fps
Resolution                       : 24 bits
Colorimetry                      : 4:2:0
Scan type                        : Progressive
Bits/(Pixel*Frame)               : 0.250
Stream size                      : 644 MiB (93%)
Writing library                  : XviD 1.2.1 (UTC 2008-12-04)

Audio
ID                               : 1
Format                           : MPEG Audio
Format version                   : Version 1
Format profile                   : Layer 3
Codec ID                         : 55
Codec ID/Hint                    : MP3
Duration                         : 50mn 0s
Bit rate mode                    : Constant
Bit rate                         : 128 Kbps
Channel(s)                       : 2 channels
Sampling rate                    : 48.0 KHz
Resolution                       : 16 bits
Stream size                      : 45.8 MiB (7%)
Alignment                        : Aligned on interleaves
Interleave, duration             : 40 ms (1.00 video frame)
Interleave, preload duration     : 504 ms
Writing library                  : LAME3.99r
Encoding settings                : -m s -V 4 -q 7 -lowpass 17 -b 128

picpicpicpicpicpic
Для увеличения картинки щелкните мышкой по превью

Этот торрент недоступен для скачивания без регистрации, однако доступен по публичной magnet-ссылке (источники с публичных трекеров). Перед использованием ссылки прочтите, пожалуйста Пользовательское соглашение, а также как можно дольше оставайтесь на раздаче! Для того, чтобы скачать сам торрент-файл (который видит больше источников), а также для того, чтобы поблагодарить релизера, вам необходимо зарегистрироваться. Если регистрироваться лень - вы можете также попробовать скачать релиз по нашим партнерским ссылкам ниже.

[underverse.su].t66198.torrent
Трекер: Зарегистрирован   [ 15.05.2016 16:43 ]  

Статус: проверено (by матроскин at 15.05.2016 16:43)
Поблагодарили: 2 человека
Тип торрента: публичный - доступные источники с открытых трекеров: 
Размер: 693 MB (занимает 0,15 DVDR, для записи нужно 1 болванка DVDR/RW)
 
 
Похожие темы
Форум Тема Автор Торрент Отв. Посл. сооб.
Исторические фильмы Бандеровцы: Война без правил [2007 г., документальный, исторический, TVRip] матроскин
1 | 0

4 | 1035

25

01.05.2014 18:25

матроскин Пол:Муж

15-Май-2016 16:45

Качайте и смотрите документальное кино!

.

матроскин Пол:Муж

15-Май-2016 17:13

Очень жаль, что Сталин И.В. не добил всю эту Власовско-Бандеровскую нечисть!!!

abrakadabra Пол:Муж

07-Сен-2016 05:40

Пропагандонский фильм

Яндекс.Метрика powered by Sphinx


В Н И М А Н И Е
Сайт не распространяет и не хранит электронные версии произведений, а лишь бесплатно и без коммерческой выгоды (не требуя взамен платы,
SMS и т.д.) предоставляет доступ к создаваемому пользователями каталогу ссылок на торрент-файлы, которые содержат только списки хеш-сумм.
Убедительная просьба с жалобами обращаться напрямую к пользователю, разместившему торрент файл.

Вверх