Loading...
Error

Ключ от преисподней / Baskin (Кан Эвренол) [2015 г., ужасы, фэнтези, WEB-DLRip] Dub (Line)

Статистика раздачи
Размер:  1,37 GB   |    Зарегистрирован:  6 месяцев   |    Скачан:  16 раз

Полного источника не было: 4 часа

Сидов:  0  |  0 KB/s  ]   Личеров:  0  |  0 KB/s  ]

* - сиды/пиры с внешних источников

   
 
Автор Сообщение

makkol Пол:Муж

15-Май-2016 10:46

Ключ от преисподней / Baskin


Год выпуска: 2015
Жанр: ужасы, фэнтези
Производство: Турция , США [Film Colony, Mo Film, XYZ Films]
Режиссер: Кан Эвренол
В ролях: Горкем Касал, Эргун Куюсу, Мухаррем Байрак, Фатих Докгёз, Сабахаттин Якут, Мехмет Церрахоглу, Хаяти Китаклар, Леман Севда Дарициоглу, Тугба Озкуль, Аслихан Ергуван
Сюжет фильма:
Пятеро брутальных копов сидели в ночной забегаловке. Обычный мужской треп — футбол, девушки, секс — прервал экстренный вызов. Группе приказали проверить заброшенный дом в лесу. Сели в патрульную машину и поехали. Привычное дело. Ежедневная рутина. Но не в этот раз. Полуразрушенный и пустой, на первый взгляд, дом оказался преддверием Ада, кишащим жуткими монстрами. И каждому из полицейских здесь уготованы чудовищные пытки, каждому — по грехам его…

  • Мировая премьера: 11 сентября 2015
  • Российская премьера: 14 апреля 2016


Качество видео: WEB-DLRip

Продолжительность: 01:36:47
Формат: AVI
Видео: XviD, 720x304 (2.35:1), 24.000 fps, 1696 kbps
Аудио: русский, дублированный (чистый звук), MP3 2.0, 48 kHz, 320 kbps

Код:

Формат                                   : AVI
Формат/Информация                        : Audio Video Interleave
Размер файла                             : 1,37 Гбайт
Продолжительность                        : 1 ч. 36 м.
Общий поток                              : 2025 Кбит/сек
Название фильма                          : rustorrents.info
Программа кодирования                    : VirtualDubMod 1.5.10.3 | www.virtualdub-fr.org || (build 2550/release)

Видео
Идентификатор                            : 0
Формат                                   : MPEG-4 Visual
Профиль формата                          : Advanced Simple@L5
Параметр BVOP формата                    : 2
Параметр QPel формата                    : Нет
Параметр GMC формата                     : Без точки перехода
Параметр матрицы формата                 : Выборочная
Идентификатор кодека                     : XVID
Идентификатор кодека/Подсказка           : XviD
Продолжительность                        : 1 ч. 36 м.
Битрейт                                  : 1696 Кбит/сек
Ширина                                   : 720 пикселей
Высота                                   : 304 пикселя
Соотношение сторон                       : 2,35:1
Частота кадров                           : 24,000 кадра/сек
Цветовое пространство                    : YUV
Субдискретизация насыщенности            : 4:2:0
Битовая глубина                          : 8 бит
Тип развёртки                            : Прогрессивная
Метод сжатия                             : С потерями
Бит/(Пиксели*Кадры)                      : 0.323
Размер потока                            : 1,15 Гбайт (84%)
Библиотека кодирования                   : XviD 1.2.1 (UTC 2008-12-04)

Аудио
Идентификатор                            : 1
Формат                                   : MPEG Audio
Версия формата                           : Version 1
Профиль формата                          : Layer 3
Режим                                    : Joint stereo
Идентификатор кодека                     : 55
Идентификатор кодека/Подсказка           : MP3
Продолжительность                        : 1 ч. 36 м.
Вид битрейта                             : Постоянный
Битрейт                                  : 320 Кбит/сек
Каналы                                   : 2 канала
Частота                                  : 48,0 КГц
Метод сжатия                             : С потерями
Размер потока                            : 222 Мбайт (16%)
Выравнивание                             : Соединение по промежуткам
Продолжительность промежутка             : 42  мс. (1,00 видеокадр)
Время предзагрузки промежутка            : 504  мс.
picpicpicpicpic
Для увеличения картинки щелкните мышкой по превью

Этот торрент недоступен для скачивания без регистрации, однако доступен по публичной magnet-ссылке (источники с публичных трекеров). Перед использованием ссылки прочтите, пожалуйста Пользовательское соглашение, а также как можно дольше оставайтесь на раздаче! Для того, чтобы скачать сам торрент-файл (который видит больше источников), а также для того, чтобы поблагодарить релизера, вам необходимо зарегистрироваться. Если регистрироваться лень - вы можете также попробовать скачать релиз по нашим партнерским ссылкам ниже.

[underverse.su].t66189.torrent
Трекер: Зарегистрирован   [ 15.05.2016 10:46 ]  

Статус: T временная (by makkol at 15.05.2016 13:15)
Поблагодарили: пока никто не поблагодарил...
Тип торрента: публичный - доступные источники с открытых трекеров: 
Размер: 1,37 GB (занимает 0,31 DVDR, для записи нужно 1 болванка DVDR/RW)
 
 
Похожие темы
Форум Тема Автор Торрент Отв. Посл. сооб.
T Зарубежное кино [DVDRip, Low-Res HDRip, и т.д.] Ключ от преисподней / Baskin (Can Evrenol / Can Evrenol) [2015 г., ужасы, фэнтези, HDRip] Dub (iTunes) 90ytr90
42 | 3

0 | 540

3

27.11.2016 15:25

T Зарубежное кино [DVDRip, Low-Res HDRip, и т.д.] Ключ от преисподней / Baskin (Can Evrenol / Can Evrenol) [2015 г., ужасы, фэнтези, HDRip] Dub (iTunes) 90ytr90
123 | 0

0 | 515

11

26.11.2016 14:47

Зарубежное кино [DVDRip, Low-Res HDRip, и т.д.] Ключ от преисподней / Baskin (Цан Евренол) [2015 г., ужасы, фэнтези, WEB-DLRip] VO + Original makkol
26 | 0

0 | 697

23

14.04.2016 23:07

T Зарубежное кино [HDDVDRip / BDRip / WEB-DL / HDTV 1080/720р] Ключ от преисподней / Baskin (Can Evrenol / Can Evrenol) [2015 г., ужасы, фэнтези, BDRip 1080p] Dub (iTunes) + Ger 90ytr90
60 | 1

0 | 324

6

27.11.2016 15:19

T Зарубежное кино [HDDVDRip / BDRip / WEB-DL / HDTV 1080/720р] Ключ от преисподней / Baskin (Can Evrenol / Can Evrenol) [2015 г., ужасы, фэнтези, BDRip 720p] Dub (iTunes) + Ger 90ytr90
69 | 10

0 | 289

4

27.11.2016 15:16

Зарубежное кино [HDDVDRip / BDRip / WEB-DL / HDTV 1080/720р] Ключ от преисподней / Baskin (Цан Евренол) [2015 г., ужасы, фэнтези, WEB-DL 720p] VO + Original makkol
13 | 0

0 | 729

16

14.04.2016 23:16

T Зарубежное кино [HDDVDRip / BDRip / WEB-DL / HDTV 1080/720р] Ключ от преисподней / Baskin (Кан Эвренол) [2015 г., ужасы, фэнтези, WEB-DL 720p] Dub (Line) + Original makkol
40 | 10

0 | 827

13

15.05.2016 10:57


Яндекс.Метрика powered by Sphinx


В Н И М А Н И Е
Сайт не распространяет и не хранит электронные версии произведений, а лишь бесплатно и без коммерческой выгоды (не требуя взамен платы,
SMS и т.д.) предоставляет доступ к создаваемому пользователями каталогу ссылок на торрент-файлы, которые содержат только списки хеш-сумм.
Убедительная просьба с жалобами обращаться напрямую к пользователю, разместившему торрент файл.

Вверх