Loading...
Error

Прощайте голуби (Яков Сегель ) [1960 г., мелодрама, TVRip]

Статистика раздачи
Размер:  702 MB   |    Зарегистрирован:  6 месяцев   |    Скачан:  6 раз

Полного источника не было: 2 часа 6 минут

Сидов:  0  |  0 KB/s  ]   Личеров:  0  |  0 KB/s  ]

* - сиды/пиры с внешних источников

   
 
Автор Сообщение

матроскин Пол:Муж

15-Май-2016 07:42

Прощайте голуби


Год выпуска: 1960
Жанр: мелодрама
Страна: СССР
Режиссер: Яков Сегель
В ролях: Алексей Локтев, Светлана Савёлова, Савелий Крамаров, Валентина Телегина, Сергей Плотников, Леонид Галлис, Антонина Максимова, Петр Вескляров, П. Постникова, Вера Предаевич
Сюжет фильма:
"Прощайте, голуби!" стал культовой картиной для молодёжи шестидесятых годов. Он был наполнен романтикой счастливой юности, вступающей в жизнь. Камера оператора взлетала вслед за героем на голубятню, в кузов грузовика, на крыши домов... Звонкая, лирическая песня Марка Фрадкина "Вот и стали мы на год взрослей" стала гимном поколения.
Качество видео: TVRip

Продолжительность: 01:31:07
Формат: avi
Видео: DivX 5, 640x480, 970 kbps
Аудио: русский, оригинал, MP3 1, 96 kbps

Код:

General
Complete name                    : C:\Users\Ohrana\Desktop\Прощайте голуби.avi
Format                           : AVI
Format/Info                      : Audio Video Interleave
File size                        : 702 MiB
Duration                         : 1h 31mn
Overall bit rate                 : 1 077 Kbps
Movie name                       : Proshchajte, golubi
Director                         : Jaltinskaja kinostudija
Recorded date                    : 1960
Writing application              : VirtualDubMod 1.5.10.1 (build 2366/release)
Writing library                  : VirtualDubMod build 2366/release
Comment                          : TVrip by Turtle @ XviDClub / DivX Pro 5.0.3 @ 0,208 bpp / Lame MP3 44,1 kHz Mono @ 96 kbps

Video
ID                               : 0
Format                           : MPEG-4 Visual
Format settings, BVOP            : Yes
Format settings, QPel            : No
Format settings, GMC             : No warppoints
Format settings, Matrix          : Default (H.263)
Muxing mode                      : Packed bitstream
Codec ID                         : DX50
Codec ID/Hint                    : DivX 5
Duration                         : 1h 31mn
Bit rate                         : 971 Kbps
Width                            : 640 pixels
Height                           : 480 pixels
Display aspect ratio             : 1.444
Frame rate                       : 25.000 fps
Resolution                       : 24 bits
Colorimetry                      : 4:2:0
Scan type                        : Progressive
Bits/(Pixel*Frame)               : 0.207
Stream size                      : 633 MiB (90%)
Writing library                  : DivX 5.0.3 (UTC 2003-01-24)

Audio
ID                               : 1
Format                           : MPEG Audio
Format version                   : Version 1
Format profile                   : Layer 3
Codec ID                         : 55
Codec ID/Hint                    : MP3
Duration                         : 1h 31mn
Bit rate mode                    : Constant
Bit rate                         : 96.0 Kbps
Channel(s)                       : 1 channel
Sampling rate                    : 44.1 KHz
Resolution                       : 16 bits
Stream size                      : 62.6 MiB (9%)
Alignment                        : Split accross interleaves
Interleave, duration             : 39 ms (0.97 video frame)
Interleave, preload duration     : 500 ms

picpicpicpicpicpic
Для увеличения картинки щелкните мышкой по превью

Этот торрент недоступен для скачивания без регистрации, однако доступен по публичной magnet-ссылке (источники с публичных трекеров). Перед использованием ссылки прочтите, пожалуйста Пользовательское соглашение, а также как можно дольше оставайтесь на раздаче! Для того, чтобы скачать сам торрент-файл (который видит больше источников), а также для того, чтобы поблагодарить релизера, вам необходимо зарегистрироваться. Если регистрироваться лень - вы можете также попробовать скачать релиз по нашим партнерским ссылкам ниже.

[underverse.su].t66187.torrent
Трекер: Зарегистрирован   [ 15.05.2016 07:42 ]  

Статус: проверено (by матроскин at 15.05.2016 07:43)
Поблагодарили: 2 человека
Тип торрента: публичный - доступные источники с открытых трекеров: 
Размер: 702 MB (занимает 0,16 DVDR, для записи нужно 1 болванка DVDR/RW)
 
 

матроскин Пол:Муж

15-Май-2016 07:44





1103 

19-Июл-2016 07:49

Спасибо!

Яндекс.Метрика powered by Sphinx


В Н И М А Н И Е
Сайт не распространяет и не хранит электронные версии произведений, а лишь бесплатно и без коммерческой выгоды (не требуя взамен платы,
SMS и т.д.) предоставляет доступ к создаваемому пользователями каталогу ссылок на торрент-файлы, которые содержат только списки хеш-сумм.
Убедительная просьба с жалобами обращаться напрямую к пользователю, разместившему торрент файл.

Вверх