Loading...
Error

Ангар 18 / Hangar 18 (Джеймс Л. Конуэй) [1980 г., фантастика, TVRip]

Статистика раздачи
Размер:  694 MB   |    Зарегистрирован:  6 месяцев   |    Скачан:  3 раза
Сидов:  1  |  0 KB/s  ]   Личеров:  0  |  0 KB/s  ]

* - сиды/пиры с внешних источников

   
 
Автор Сообщение

матроскин Пол:Муж

14-Май-2016 19:47

Ангар 18 / Hangar 18


Год выпуска: 1980
Жанр: фантастика
Страна: США
Режиссер: Джеймс Л. Конуэй
В ролях: Гари Коллинз, Джеймс Хэмптон, Джозеф Кампанелла,Дэррен МакГэвин, Памела Беллвуд, Роберт Вон, Стивен Китс, Том Холлик, Уильям Шэллерт, Филип Эбботт
Сюжет фильма:
Во время запуска спутника с космического челнока NASA происходит катастрофа. Спутник сталкивается с НЛО. Неопознанный объект совершает аварийную посадку на Земле и попадает в руки спецслужб правительства.
Качество видео: TVRip

Продолжительность: 01:24:27
Формат: avi
Видео: XviD, 600x456, 1011 kbps
Аудио: русский, дублированный, MP3 2.0, 128 kbps

Код:

General
Complete name                    : C:\Users\Ohrana\Desktop\Ангар 18 1980.avi
Format                           : AVI
Format/Info                      : Audio Video Interleave
File size                        : 694 MiB
Duration                         : 1h 24mn
Overall bit rate                 : 1 149 Kbps
Writing application              : VirtualDubModRus 1.5.10.2 (build 2540/release)
Writing library                  : VirtualDubMod build 2540/release

Video
ID                               : 0
Format                           : MPEG-4 Visual
Format profile                   : Streaming Video@L1
Format settings, BVOP            : Yes
Format settings, QPel            : No
Format settings, GMC             : No warppoints
Format settings, Matrix          : Default (H.263)
Muxing mode                      : Packed bitstream
Codec ID                         : XVID
Codec ID/Hint                    : XviD
Duration                         : 1h 24mn
Bit rate                         : 1 012 Kbps
Width                            : 600 pixels
Height                           : 456 pixels
Display aspect ratio             : 4/3
Frame rate                       : 25.000 fps
Resolution                       : 24 bits
Colorimetry                      : 4:2:0
Scan type                        : Progressive
Bits/(Pixel*Frame)               : 0.148
Stream size                      : 611 MiB (88%)
Writing library                  : XviD 1.2.0.dev47 (UTC 2006-11-01)

Audio
ID                               : 1
Format                           : MPEG Audio
Format version                   : Version 1
Format profile                   : Layer 3
Codec ID                         : 55
Codec ID/Hint                    : MP3
Duration                         : 1h 24mn
Bit rate mode                    : Constant
Bit rate                         : 128 Kbps
Channel(s)                       : 2 channels
Sampling rate                    : 48.0 KHz
Resolution                       : 16 bits
Stream size                      : 77.3 MiB (11%)
Alignment                        : Aligned on interleaves
Interleave, duration             : 40 ms (1.00 video frame)
Interleave, preload duration     : 504 ms

picpicpicpicpicpic
Для увеличения картинки щелкните мышкой по превью

Этот торрент недоступен для скачивания без регистрации, однако доступен по публичной magnet-ссылке (источники с публичных трекеров). Перед использованием ссылки прочтите, пожалуйста Пользовательское соглашение, а также как можно дольше оставайтесь на раздаче! Для того, чтобы скачать сам торрент-файл (который видит больше источников), а также для того, чтобы поблагодарить релизера, вам необходимо зарегистрироваться. Если регистрироваться лень - вы можете также попробовать скачать релиз по нашим партнерским ссылкам ниже.

[underverse.su].t66180.torrent
Трекер: Зарегистрирован   [ 14.05.2016 19:47 ]  

Статус: проверено (by матроскин at 14.05.2016 19:47)
Поблагодарили: 1 человек
Тип торрента: публичный - доступные источники с открытых трекеров: 
Размер: 694 MB (занимает 0,15 DVDR, для записи нужно 1 болванка DVDR/RW)
 
 

матроскин Пол:Муж

14-Май-2016 19:49






Яндекс.Метрика powered by Sphinx


В Н И М А Н И Е
Сайт не распространяет и не хранит электронные версии произведений, а лишь бесплатно и без коммерческой выгоды (не требуя взамен платы,
SMS и т.д.) предоставляет доступ к создаваемому пользователями каталогу ссылок на торрент-файлы, которые содержат только списки хеш-сумм.
Убедительная просьба с жалобами обращаться напрямую к пользователю, разместившему торрент файл.

Вверх