Loading...
Error

Дом у озера (Алехандро Агрести ) [2006 г., драма, мелодрама, DVDRip]

Статистика раздачи
Размер:  743 MB   |    Зарегистрирован:  6 месяцев   |    Скачан:  4 раза

Полного источника не было: 1 день 9 часов

Сидов:  0  |  0 KB/s  ]   Личеров:  0  |  0 KB/s  ]

* - сиды/пиры с внешних источников

   
 
Автор Сообщение

матроскин Пол:Муж

14-Май-2016 15:55

Дом у озера


Год выпуска: 2006
Жанр: драма, мелодрама
Страна: США , Австралия
Режиссер: Алехандро Агрести
В ролях: Киану Ривз, Сандра Буллок, Кристофер Пламмер, Эбон Мосс-Бакрак, Виллеке ван Аммельрой,Дилан Уолш, Шохре Агдашлу, Линн Коллинз, Майк Бакарелла, Кевин Бреннан
Сюжет фильма:
Зима 2006 года. Ощутив необходимость изменить свою жизнь, доктор Кейт Форестер покидает свой необычный дом у озера в пригороде Иллинойса и устраивается на работу в чикагскую больницу. Единственное, о чем жалеет Кейт, так это о своем красивом доме с огромными окнами, который дарил ей душевное спокойствие. По дороге в город Кейт оставляет в почтовом ящике письмо, которое должен получить новый обитатель дома.

Когда же в него вселяется талантливый, но разочаровавшийся в жизни архитектор Алекс Уайлер, он видит этот дом совсем не таким, каким описала его в своем письме Кейт. Для Алекса это жилище имеет особое значение, поскольку оно было построено его отцом, знаменитым архитектором, который ради карьеры оставил свою семью. В итоге Алекс решает придать дому его первоначальный вид. Однажды странный случай заставляет Алекса написать ответное письмо Кейт; в процессе их переписки выясняется, что он живет в 2004 году, а она — в 2006-м. И лишь загадочный почтовый ящик служит неким соединяющим их мостиком.

В письмах они делятся друг с другом самым сокровенным, и постепенно между ними возникает заочный любовный роман. Испытывая неодолимое желание встретиться, Кейт и Алекс идут на все, чтобы добиться невозможного, рискуя при этом навсегда потерять друг друга…
Качество видео: DVDRip

Продолжительность: 01:38:32
Формат: avi
Видео: XviD, 704x288, 916 kbps
Аудио: русский, дублированный, MP3 2.0, 128 kbps

Код:

General
Complete name                    : C:\Users\Ohrana\Desktop\Дом у озера 2006.avi
Format                           : AVI
Format/Info                      : Audio Video Interleave
File size                        : 743 MiB
Duration                         : 1h 38mn
Overall bit rate                 : 1 054 Kbps
Writing application              : VirtualDubMod 1.5.10.2 (build 2540/release)
Writing library                  : VirtualDubMod build 2540/release

Video
ID                               : 0
Format                           : MPEG-4 Visual
Format profile                   : Streaming Video@L1
Format settings, BVOP            : Yes
Format settings, QPel            : No
Format settings, GMC             : No warppoints
Format settings, Matrix          : Default (MPEG)
Codec ID                         : XVID
Codec ID/Hint                    : XviD
Duration                         : 1h 38mn
Bit rate                         : 917 Kbps
Width                            : 704 pixels
Height                           : 288 pixels
Display aspect ratio             : 2.444
Frame rate                       : 23.976 fps
Resolution                       : 24 bits
Colorimetry                      : 4:2:0
Scan type                        : Progressive
Bits/(Pixel*Frame)               : 0.189
Stream size                      : 646 MiB (87%)
Writing library                  : XviD 1.2.0.dev47 (UTC 2006-11-01)

Audio
ID                               : 1
Format                           : MPEG Audio
Format version                   : Version 1
Format profile                   : Layer 3
Codec ID                         : 55
Codec ID/Hint                    : MP3
Duration                         : 1h 38mn
Bit rate mode                    : Constant
Bit rate                         : 128 Kbps
Channel(s)                       : 2 channels
Sampling rate                    : 48.0 KHz
Resolution                       : 16 bits
Stream size                      : 90.2 MiB (12%)
Alignment                        : Aligned on interleaves
Interleave, duration             : 42 ms (1.00 video frame)
Interleave, preload duration     : 504 ms
Writing library                  : LAME3.97
Encoding settings                : -m s -V 4 -q 2 -lowpass 17 -b 128

picpicpicpicpicpic
Для увеличения картинки щелкните мышкой по превью

Этот торрент недоступен для скачивания без регистрации, однако доступен по публичной magnet-ссылке (источники с публичных трекеров). Перед использованием ссылки прочтите, пожалуйста Пользовательское соглашение, а также как можно дольше оставайтесь на раздаче! Для того, чтобы скачать сам торрент-файл (который видит больше источников), а также для того, чтобы поблагодарить релизера, вам необходимо зарегистрироваться. Если регистрироваться лень - вы можете также попробовать скачать релиз по нашим партнерским ссылкам ниже.

[underverse.su].t66175.torrent
Трекер: Зарегистрирован   [ 14.05.2016 15:55 ]  

Статус: проверено (by матроскин at 14.05.2016 15:55)
Поблагодарили: пока никто не поблагодарил...
Тип торрента: публичный - доступные источники с открытых трекеров: 
Размер: 743 MB (занимает 0,17 DVDR, для записи нужно 1 болванка DVDR/RW)
 
 
Похожие темы
Форум Тема Автор Торрент Отв. Посл. сооб.
* Архив Дом у озера / The Lake House (Алехандро Агрести) [2006 г., фэнтези, мелодрама, драма, BDRip] floatrx

1 | 697

29.08.2010 23:52

матроскин Пол:Муж

14-Май-2016 19:12






Яндекс.Метрика powered by Sphinx


В Н И М А Н И Е
Сайт не распространяет и не хранит электронные версии произведений, а лишь бесплатно и без коммерческой выгоды (не требуя взамен платы,
SMS и т.д.) предоставляет доступ к создаваемому пользователями каталогу ссылок на торрент-файлы, которые содержат только списки хеш-сумм.
Убедительная просьба с жалобами обращаться напрямую к пользователю, разместившему торрент файл.

Вверх