Loading...
Error

Война Вилли / Willie’s War (Колин Финбоу) [1994 г., драма, VHSRip-AVC] AVO + Original

Статистика раздачи
Размер:  1,42 GB   |    Зарегистрирован:  6 месяцев   |    Скачан:  2 раза

Полного источника не было: 3 месяца 19 дней

Сидов:  0  |  0 KB/s  ]   Личеров:  0  |  0 KB/s  ]

* - сиды/пиры с внешних источников

   
 
Автор Сообщение

makkol Пол:Муж

14-Май-2016 13:52

Война Вилли / Willie’s War


Год выпуска: 1994
Жанр: драма
Производство: Великобритания [Channel Four Films, Children's Film Unit]
Режиссер: Колин Финбоу
В ролях: Ли Тернбулл, Джин Александр, Филипп Бодди, Гордон Гриффин, Эдвард Хаймор, Чарльз Кей, Джек Мэй, Алекса Пова, Джемайма Рупер, Тат Уолли
Сюжет фильма:
Когда десятилетний Вилли был эвакуирован из восточного Лондона, его выбрал к себе тринадцатилетний Зандер — сын капитана армии, в качестве компаньона в прекрасном загородном доме. Отношение Зандера к нему было высокомерным и издевательским. Вилли не хотел стрелять в птиц, играть в солдатики и заниматься боксом. Его друзьями были только няня Зандера и молодой солдат Блейк. Отец Вилли дезертировал из армии и оказался в соседнем лесу, няня по ночам носила ему еду, но однажны, испугавшись, Блейк стреляет в него...

Качество видео: VHSRip-AVC

Продолжительность: 01:11:58
Формат: MKV
Видео: MPEG-4 AVC, 640x480 (4:3), 24.000 fps, 2444 kbps
Аудио #1: русский, авторский одноголосый закадровый (Антон Алексеев), MP3 2.0, 44.1 kHz, 128 kbps
Аудио #2: английский, оригинал, AC3 2.0, 48 kHz, 192 kbps

Код:

Формат                                   : Matroska
Версия формата                           : Version 4 / Version 2
Размер файла                             : 1,42 Гбайт
Продолжительность                        : 1 ч. 11 м.
Общий поток                              : 2820 Кбит/сек
Дата кодирования                         : UTC 2016-05-10 21:16:54
Программа кодирования                    : mkvmerge v7.9.0 ('Birds') 64bit
Библиотека кодирования                   : libebml v1.3.1 + libmatroska v1.4.2

Видео
Идентификатор                            : 1
Формат                                   : AVC
Формат/Информация                        : Advanced Video Codec
Профиль формата                          : Baseline@L3.1
Параметр CABAC формата                   : Нет
Параметр ReFrames формата                : 1 кадр
Параметр GOP формата                     : M=1, N=33
Идентификатор кодека                     : V_MPEG4/ISO/AVC
Продолжительность                        : 1 ч. 11 м.
Битрейт                                  : 2444 Кбит/сек
Ширина                                   : 640 пикселей
Высота                                   : 480 пикселей
Соотношение сторон                       : 4:3
Режим частоты кадров                     : Постоянный
Частота кадров                           : 24,000 кадра/сек
Стандарт вещания                         : NTSC
Цветовое пространство                    : YUV
Субдискретизация насыщенности            : 4:2:0
Битовая глубина                          : 8 бит
Тип развёртки                            : Прогрессивная
Бит/(Пиксели*Кадры)                      : 0.331
Размер потока                            : 1,23 Гбайт (87%)
Язык                                     : English
Default                                  : Да
Forced                                   : Нет
Цветовой диапазон                        : Limited

Аудио #1
Идентификатор                            : 2
Формат                                   : MPEG Audio
Версия формата                           : Version 1
Профиль формата                          : Layer 3
Режим                                    : Joint stereo
Расширение режима                        : MS Stereo
Идентификатор кодека                     : A_MPEG/L3
Идентификатор кодека/Подсказка           : MP3
Продолжительность                        : 1 ч. 11 м.
Вид битрейта                             : Постоянный
Битрейт                                  : 128 Кбит/сек
Каналы                                   : 2 канала
Частота                                  : 44,1 КГц
Метод сжатия                             : С потерями
Размер потока                            : 65,9 Мбайт (5%)
Заголовок                                : Антон Алексеев
Библиотека кодирования                   : LAME3.97ЄЄЄ@A®!дd
Язык                                     : Russian
Default                                  : Да
Forced                                   : Нет

Аудио #2
Идентификатор                            : 3
Формат                                   : AC-3
Формат/Информация                        : Audio Coding 3
Расширение режима                        : CM (complete main)
Параметр Endianness формата              : Big
Идентификатор кодека                     : A_AC3
Продолжительность                        : 1 ч. 11 м.
Вид битрейта                             : Постоянный
Битрейт                                  : 192 Кбит/сек
Каналы                                   : 2 канала
Расположение каналов                     : Front: L R
Частота                                  : 48,0 КГц
Метод сжатия                             : С потерями
Размер потока                            : 98,8 Мбайт (7%)
Язык                                     : English
Default                                  : Нет
Forced                                   : Нет
picpicpicpicpic
Для увеличения картинки щелкните мышкой по превью

Этот торрент недоступен для скачивания без регистрации, однако доступен по публичной magnet-ссылке (источники с публичных трекеров). Перед использованием ссылки прочтите, пожалуйста Пользовательское соглашение, а также как можно дольше оставайтесь на раздаче! Для того, чтобы скачать сам торрент-файл (который видит больше источников), а также для того, чтобы поблагодарить релизера, вам необходимо зарегистрироваться. Если регистрироваться лень - вы можете также попробовать скачать релиз по нашим партнерским ссылкам ниже.

[underverse.su].t66173.torrent
Трекер: Зарегистрирован   [ 14.05.2016 13:52 ]  

Статус: проверено (by makkol at 15.05.2016 13:09)
Поблагодарили: пока никто не поблагодарил...
Тип торрента: публичный - доступные источники с открытых трекеров: 
Размер: 1,42 GB (занимает 0,32 DVDR, для записи нужно 1 болванка DVDR/RW)
 
 

Яндекс.Метрика powered by Sphinx


В Н И М А Н И Е
Сайт не распространяет и не хранит электронные версии произведений, а лишь бесплатно и без коммерческой выгоды (не требуя взамен платы,
SMS и т.д.) предоставляет доступ к создаваемому пользователями каталогу ссылок на торрент-файлы, которые содержат только списки хеш-сумм.
Убедительная просьба с жалобами обращаться напрямую к пользователю, разместившему торрент файл.

Вверх