Loading...
Error

Бренды Советской эпохи. День победы [2016 г., документальный, HDTVRip]

Статистика раздачи
Размер:  227 MB   |    Зарегистрирован:  6 месяцев   |    Скачан:  0 раз

Полного источника не было: 1 день 21 час

Сидов:  0  |  0 KB/s  ]   Личеров:  0  |  0 KB/s  ]

* - сиды/пиры с внешних источников

   
 
Автор Сообщение

матроскин Пол:Муж

14-Май-2016 09:29

Бренды Советской эпохи. День победы


Год выпуска: 2016
Жанр: документальный
Страна: Россия
Выпущено: Красное Тв
Сюжет фильма:
День Побе́ды — праздник победы Красной армии и советского народа над нацистской Германией в Великой Отечественной войне 1941—1945 годов. Установлен Указом Президиума Верховного Совета СССР от 8 мая 1945 года[1] и отмечается 9 мая каждого года.
В День Победы производится организованное шествие к Могиле Неизвестного Солдата (в Москве), парад в городах-героях, праздничный салют.
Качество видео: HDTVRip

Продолжительность: 00:05:03
Формат: avi
Видео: DivX 4, 856x480, 6009 kbps
Аудио: русский, оригинал, MP3 2.0, 256 kbps

Код:

General
Complete name                    : C:\Users\Ohrana\Desktop\Бренды День победы.avi
Format                           : AVI
Format/Info                      : Audio Video Interleave
File size                        : 227 MiB
Duration                         : 5mn 3s
Overall bit rate                 : 6 278 Kbps
Writing application              : Lavf56.25.101

Video
ID                               : 0
Format                           : MPEG-4 Visual
Format profile                   : Simple@L1
Format settings, BVOP            : No
Format settings, QPel            : No
Format settings, GMC             : No warppoints
Format settings, Matrix          : Default (H.263)
Codec ID                         : DIVX
Codec ID/Info                    : Project Mayo
Codec ID/Hint                    : DivX 4
Duration                         : 5mn 3s
Bit rate                         : 6 009 Kbps
Width                            : 856 pixels
Height                           : 480 pixels
Display aspect ratio             : 16/9
Frame rate                       : 25.000 fps
Resolution                       : 24 bits
Colorimetry                      : 4:2:0
Scan type                        : Progressive
Bits/(Pixel*Frame)               : 0.585
Stream size                      : 217 MiB (96%)
Writing library                  : Lavc56.26.100

Audio
ID                               : 1
Format                           : MPEG Audio
Format version                   : Version 1
Format profile                   : Layer 3
Codec ID                         : 55
Codec ID/Hint                    : MP3
Duration                         : 5mn 3s
Bit rate mode                    : Constant
Bit rate                         : 256 Kbps
Channel(s)                       : 2 channels
Sampling rate                    : 44.1 KHz
Resolution                       : 16 bits
Stream size                      : 9.25 MiB (4%)
Alignment                        : Aligned on interleaves
Interleave, duration             : 26 ms (0.65 video frame)
Interleave, preload duration     : 26 ms
Writing library                  : LAME3.99.5

picpicpicpicpicpic
Для увеличения картинки щелкните мышкой по превью

Этот торрент недоступен для скачивания без регистрации, однако доступен по публичной magnet-ссылке (источники с публичных трекеров). Перед использованием ссылки прочтите, пожалуйста Пользовательское соглашение, а также как можно дольше оставайтесь на раздаче! Для того, чтобы скачать сам торрент-файл (который видит больше источников), а также для того, чтобы поблагодарить релизера, вам необходимо зарегистрироваться. Если регистрироваться лень - вы можете также попробовать скачать релиз по нашим партнерским ссылкам ниже.

[underverse.su].t66161.torrent
Трекер: Зарегистрирован   [ 14.05.2016 09:29 ]  

Статус: проверено (by матроскин at 14.05.2016 09:30)
Поблагодарили: 1 человек
Тип торрента: публичный - доступные источники с открытых трекеров: 
Размер: 227 MB (занимает 0,05 DVDR, для записи нужно 1 болванка DVDR/RW)
 
 
Похожие темы
Форум Тема Автор Торрент Отв. Посл. сооб.
Исторические фильмы Бренды Советской эпохи. Мой адрес Советский Союз. [2013 г., документальный, HDTVRip] матроскин
0 | 0

1 | 832

29

27.02.2014 13:03

Исторические фильмы Бренды Советской Эпохи [2013, документальный, TVRip] матроскин
1 | 0

3 | 829

41

14.05.2013 19:23

Исторические фильмы Бренды Советской Эпохи. Московский метрополитен. [2013 г., документальный, короткометражный HDTVRip] матроскин
0 | 0

1 | 1183

24

09.05.2013 21:05

Исторические фильмы Бренды Советской эпохи. Черная икра. [2013 г., документальный, короткометражный HDTVRip] матроскин
0 | 0

2 | 1198

19

20.07.2013 13:34

Исторические фильмы Бренды Советской эпохи. Гитара. [2013 г., документальный, короткометражный, HDTVRip] матроскин
0 | 0

1 | 1060

13

12.05.2013 11:50

Исторические фильмы Бренды Советской эпохи. Большое новоселье [2013 г., исторический, документальный, HDTVRip] матроскин
0 | 0

2 | 979

25

01.08.2013 20:07

Исторические фильмы Бренды Советской эпохи. Мопеды [2013 г., исторический, документальный, HDTVRip] матроскин
1 | 0

1 | 1015

26

11.07.2013 08:55

Исторические фильмы Бренды Советской эпохи. Московские высотки. [2013 г., исторический, документальный, HDTVRip] матроскин
0 | 0

3 | 1067

24

21.07.2014 13:02

Исторические фильмы Бренды Советской эпохи. Советские часы [2013 г., документальный, исторический, HDTVRip] матроскин
0 | 0

2 | 1821

31

12.10.2013 05:00

Исторические фильмы Бренды Советской эпохи. Столичная водка [2013 г., документальный, исторический, HDTVRip] матроскин
0 | 0

1 | 2284

36

09.10.2013 10:54

матроскин Пол:Муж

14-Май-2016 09:30



Hranitel Пол:Муж

15-Май-2016 08:30

Знамя Победы, дорогие друзья, должно развеваться над каждым зданием в стране.
Спасибо, Матроскин, за такой релиз!!! :) :good:

Яндекс.Метрика powered by Sphinx


В Н И М А Н И Е
Сайт не распространяет и не хранит электронные версии произведений, а лишь бесплатно и без коммерческой выгоды (не требуя взамен платы,
SMS и т.д.) предоставляет доступ к создаваемому пользователями каталогу ссылок на торрент-файлы, которые содержат только списки хеш-сумм.
Убедительная просьба с жалобами обращаться напрямую к пользователю, разместившему торрент файл.

Вверх