Loading...
Error

Рыбалка нового поколения. Фидер в коммерческом водоеме [2013 г., документальный, рыбалка, WEB-DLRip]

Статистика раздачи
Размер:  746 MB   |    Зарегистрирован:  6 месяцев   |    Скачан:  5 раз

Полного источника не было: 1 месяц 15 дней

Сидов:  0  |  0 KB/s  ]   Личеров:  0  |  0 KB/s  ]

* - сиды/пиры с внешних источников

   
 
Автор Сообщение

ARI71 Пол:Муж

12-Май-2016 19:51

Рыбалка нового поколения. Фидер в коммерческом водоеме


Год выпуска: 2013
Жанр: документальный, рыбалка
Страна: Украина
Режиссер: Сергей Попов
Автор и ведущий: Сергей Попов
Сюжет фильма:
Сюжет видео приложения к иллюстрированному альбому о современной рыбалке «Рыбалка нового поколения - Next Generation Fishing». Сюжет посвящен ловле карпа, амура и толстолоба на фидер с применением методных кормушек типа флэт.
Действие происходит на коммерческом водоеме "Пустовиты".

Качество видео: WEB-DLRip

Продолжительность: 01:36:17
Формат: AVI
Видео: XviD, 656x368, ~946 kbps
Аудио: русский, (оригинал), MP3 2.0, ~128.00 kbps

Код:

Общее
Полное имя : D:\Rybalka_novogo_pokolenija_WEB-DLRip_Один 777.avi
Формат : AVI
Формат/Информация : Audio Video Interleave
Размер файла : 746 Мбайт
Продолжительность : 1 ч. 36 м.
Общий поток : 1083 Кбит/сек
Программа кодирования : VirtualDubMod 1.5.10.3 | www.virtualdub-fr.org || (build 2550/release)
Библиотека кодирования : VirtualDubMod build 2550/release

Видео
Идентификатор : 0
Формат : MPEG-4 Visual
Профиль формата : Advanced Simple@L5
Параметр BVOP формата : 1
Параметр QPel формата : Нет
Параметр GMC формата : Без точки перехода
Параметр матрицы формата : Default (H.263)
Идентификатор кодека : XVID
Идентификатор кодека/Подсказка : XviD
Продолжительность : 1 ч. 36 м.
Битрейт : 946 Кбит/сек
Ширина : 656 пикселей
Высота : 368 пикселей
Соотношение сторон : 16:9
Частота кадров : 25,000 кадров/сек
Цветовое пространство : YUV
Субдискретизация насыщенности : 4:2:0
Битовая глубина : 8 бит
Тип развёртки : Прогрессивная
Метод сжатия : С потерями
Бит/(Пиксели*Кадры) : 0.157
Размер потока : 651 Мбайт (87%)
Библиотека кодирования : XviD 1.2.1 (UTC 2008-12-04)

Аудио
Идентификатор : 1
Формат : MPEG Audio
Версия формата : Version 1
Профиль формата : Layer 3
Идентификатор кодека : 55
Идентификатор кодека/Подсказка : MP3
Продолжительность : 1 ч. 36 м.
Вид битрейта : Постоянный
Битрейт : 128 Кбит/сек
Каналы : 2 канала
Частота : 44,1 КГц
Метод сжатия : С потерями
Размер потока : 88,2 Мбайт (12%)
Выравнивание : Разделение по промежуткам
Продолжительность промежутка : 40 мс. (1,00 видеокадр)
Время предзагрузки промежутка : 500 мс.
Библиотека кодирования : LAME3.98r
Настройки программы : -m s -V 4 -q 2 -lowpass 17 -b 128
picpicpicpicpic
Для увеличения картинки щелкните мышкой по превью

Этот торрент недоступен для скачивания без регистрации, однако доступен по публичной magnet-ссылке (источники с публичных трекеров). Перед использованием ссылки прочтите, пожалуйста Пользовательское соглашение, а также как можно дольше оставайтесь на раздаче! Для того, чтобы скачать сам торрент-файл (который видит больше источников), а также для того, чтобы поблагодарить релизера, вам необходимо зарегистрироваться. Если регистрироваться лень - вы можете также попробовать скачать релиз по нашим партнерским ссылкам ниже.

[underverse.su].t66137.torrent
Трекер: Зарегистрирован   [ 12.05.2016 19:51 ]  

Статус: проверено (by матроскин at 12.05.2016 20:37)
Поблагодарили: пока никто не поблагодарил...
Тип торрента: публичный - доступные источники с открытых трекеров: 
Размер: 746 MB (занимает 0,17 DVDR, для записи нужно 1 болванка DVDR/RW)
 
 
Похожие темы
Форум Тема Автор Торрент Отв. Посл. сооб.
Рыбалка Рыбалка нового поколения (Охота на сазана) / (Сергей Попов) [2016 г., документальный, рыбалка, WEBRip] ARI71
5 | 0

1 | 444

4

26.09.2016 17:26

Рыбалка Рыбалка нового поколения. Ловля леща в реке [2013 г., документальный, рыбалка, WEB-DLRip] ARI71
1 | 0

0 | 910

5

12.05.2016 17:54

Рыбалка Рыбалка нового поколения. Ловля карпа [2013 г., документальный, рыбалка, WEB-DLRip] ARI71
1 | 0

0 | 705

7

12.05.2016 19:21

Рыбалка Рыбалка нового поколения (Flat Feeder, каков он есть...) [2016 г., документальный, рыбалка, WEBRip] ARI71
1 | 0

0 | 924

6

12.05.2016 20:44


Яндекс.Метрика powered by Sphinx


В Н И М А Н И Е
Сайт не распространяет и не хранит электронные версии произведений, а лишь бесплатно и без коммерческой выгоды (не требуя взамен платы,
SMS и т.д.) предоставляет доступ к создаваемому пользователями каталогу ссылок на торрент-файлы, которые содержат только списки хеш-сумм.
Убедительная просьба с жалобами обращаться напрямую к пользователю, разместившему торрент файл.

Вверх