Loading...
Error

Рыбалка нового поколения. Ловля леща в реке [2013 г., документальный, рыбалка, WEB-DLRip]

Статистика раздачи
Размер:  1,09 GB   |    Зарегистрирован:  6 месяцев   |    Скачан:  5 раз

Полного источника не было: 9 часов

Сидов:  0  |  0 KB/s  ]   Личеров:  0  |  0 KB/s  ]

* - сиды/пиры с внешних источников

   
 
Автор Сообщение

ARI71 Пол:Муж

12-Май-2016 17:54

Рыбалка нового поколения. Ловля леща в реке


Год выпуска: 2013
Жанр: документальный, рыбалка
Страна: Украина
Режиссер: Сергей Попов
Автор и ведущий: Сергей Попов
Сюжет фильма:
Сюжет видео приложения к иллюстрированному альбому о современной рыбалке «Рыбалка нового поколения - Next Generation Fishing». Сюжет посвящен ловле леща на фидер. Действие происходит на реке Северский Донец в Луганской области, Украина.
Качество видео: WEB-DLRip

Продолжительность: 01:09:32
Формат: AVI
Видео: XviD, 720x408, ~2099 kbps
Аудио: русский, (оригинал), MP3 2.0, ~128.00 kbps

Код:

Общее
Полное имя : D:\Lovlia_Lecha_na_reke.WEB-DLRip.avi
Формат : AVI
Формат/Информация : Audio Video Interleave
Размер файла : 1,09 Гбайт
Продолжительность : 1 ч. 9 м.
Общий поток : 2237 Кбит/сек
Библиотека кодирования : VirtualDub build 32842/release

Видео
Идентификатор : 0
Формат : MPEG-4 Visual
Профиль формата : Advanced Simple@L5
Параметр BVOP формата : 2
Параметр QPel формата : Нет
Параметр GMC формата : Без точки перехода
Параметр матрицы формата : Default (H.263)
Режим смешивания : Сжатый битовый поток
Идентификатор кодека : XVID
Идентификатор кодека/Подсказка : XviD
Продолжительность : 1 ч. 9 м.
Битрейт : 2099 Кбит/сек
Ширина : 720 пикселей
Высота : 408 пикселей
Соотношение сторон : 16:9
Частота кадров : 25,000 кадров/сек
Цветовое пространство : YUV
Субдискретизация насыщенности : 4:2:0
Битовая глубина : 8 бит
Тип развёртки : Прогрессивная
Метод сжатия : С потерями
Бит/(Пиксели*Кадры) : 0.286
Размер потока : 1,02 Гбайт (94%)
Библиотека кодирования : XviD 65

Аудио
Идентификатор : 1
Формат : MPEG Audio
Версия формата : Version 1
Профиль формата : Layer 3
Режим : Joint stereo
Расширение режима : MS Stereo
Идентификатор кодека : 55
Идентификатор кодека/Подсказка : MP3
Продолжительность : 1 ч. 9 м.
Вид битрейта : Постоянный
Битрейт : 128 Кбит/сек
Каналы : 2 канала
Частота : 44,1 КГц
Метод сжатия : С потерями
Задержка видео : 20 мс.
Размер потока : 63,5 Мбайт (6%)
Выравнивание : Разделение по промежуткам
Продолжительность промежутка : 40 мс. (1,00 видеокадр)
Время предзагрузки промежутка : 500 мс.
picpicpicpicpic
Для увеличения картинки щелкните мышкой по превью

Этот торрент недоступен для скачивания без регистрации, однако доступен по публичной magnet-ссылке (источники с публичных трекеров). Перед использованием ссылки прочтите, пожалуйста Пользовательское соглашение, а также как можно дольше оставайтесь на раздаче! Для того, чтобы скачать сам торрент-файл (который видит больше источников), а также для того, чтобы поблагодарить релизера, вам необходимо зарегистрироваться. Если регистрироваться лень - вы можете также попробовать скачать релиз по нашим партнерским ссылкам ниже.

[underverse.su].t66125.torrent
Трекер: Зарегистрирован   [ 12.05.2016 17:54 ]  

Статус: проверено (by матроскин at 12.05.2016 20:38)
Поблагодарили: пока никто не поблагодарил...
Тип торрента: публичный - доступные источники с открытых трекеров: 
Размер: 1,09 GB (занимает 0,25 DVDR, для записи нужно 1 болванка DVDR/RW)
 
 
Похожие темы
Форум Тема Автор Торрент Отв. Посл. сооб.
Рыбалка Рыбалка нового поколения (Охота на сазана) / (Сергей Попов) [2016 г., документальный, рыбалка, WEBRip] ARI71
5 | 0

1 | 445

4

26.09.2016 17:26

Рыбалка Рыбалка нового поколения. Ловля карпа [2013 г., документальный, рыбалка, WEB-DLRip] ARI71
1 | 0

0 | 706

7

12.05.2016 19:21

Рыбалка Рыбалка нового поколения. Фидер в коммерческом водоеме [2013 г., документальный, рыбалка, WEB-DLRip] ARI71
4 | 0

0 | 887

5

12.05.2016 19:51

Рыбалка Рыбалка нового поколения (Flat Feeder, каков он есть...) [2016 г., документальный, рыбалка, WEBRip] ARI71
0 | 0

0 | 926

6

12.05.2016 20:44


Яндекс.Метрика powered by Sphinx


В Н И М А Н И Е
Сайт не распространяет и не хранит электронные версии произведений, а лишь бесплатно и без коммерческой выгоды (не требуя взамен платы,
SMS и т.д.) предоставляет доступ к создаваемому пользователями каталогу ссылок на торрент-файлы, которые содержат только списки хеш-сумм.
Убедительная просьба с жалобами обращаться напрямую к пользователю, разместившему торрент файл.

Вверх