Loading...
Error

Правда о насилии / The Truth About Violence [2008 г., документальный, научно-познавательный, исследование, IPTVRip] VO

Статистика раздачи
Размер:  719 MB   |    Зарегистрирован:  6 месяцев   |    Скачан:  2 раза

Полного источника не было: 4 дня

Сидов:  0  |  0 KB/s  ]   Личеров:  0  |  0 KB/s  ]

* - сиды/пиры с внешних источников

   
 
Автор Сообщение

ARI71 Пол:Муж

11-Май-2016 19:41

Правда о насилии / The Truth About Violence


Год выпуска: 2008
Жанр: документальный, научно-познавательный, исследование
Страна: Великобритания Viasat Explorer
Режиссер: BBC
Сюжет фильма:
Сами себе мы кажемся спокойными, мирными и законопослушными созданиями. Но можно ли заставить нас совершить убийство? Бывший английский политический деятель Майкл Портилло приходит к выводу, что способность к насилию заложена в каждом. И спровоцировать ее могут многие факторы, начиная от уровня сдерживающих агрессию гормонов дофамина и серотонина, до ситуации в обществе. Автор программы выясняет, почему недосыпание часто приводит к срывам, а также открывает неожиданную связь между травмами мозга и бытовым насилием. Каким образом наши мораль и поведение зависят от групповой принадлежности и от состояния общества в целом? Да, мы считаем, что убийство недопустимо. Но что произойдет если изменить наши поведенческие и моральные установки? Правда ли, что человек более склонен к насилию, чем хочется думать? Могут ли обстоятельства толкнуть любого из нас на убийство?
Качество видео: IPTVRip

Продолжительность: 00:51:59
Формат: AVI
Видео: XviD, 706x430, ~1795 kbps
Аудио: русский, одноголосый (профессиональный), MP3 2.0, ~128.00 kbps

Код:

Общее
Полное имя : D:\The.Truth.About.Violence.2008.IPTVRip.XVid.MP3.avi
Формат : AVI
Формат/Информация : Audio Video Interleave
Размер файла : 719 Мбайт
Продолжительность : 51 м.
Общий поток : 1933 Кбит/сек
Программа кодирования : VirtualDubMod 1.5.10.2 (build 2540/release)
Библиотека кодирования : VirtualDubMod build 2540/release

Видео
Идентификатор : 0
Формат : MPEG-4 Visual
Профиль формата : Advanced Simple@L5
Параметр BVOP формата : 2
Параметр QPel формата : Нет
Параметр GMC формата : Без точки перехода
Параметр матрицы формата : Default (H.263)
Режим смешивания : Сжатый битовый поток
Идентификатор кодека : XVID
Идентификатор кодека/Подсказка : XviD
Продолжительность : 51 м.
Битрейт : 1795 Кбит/сек
Ширина : 706 пикселей
Высота : 430 пикселей
Соотношение сторон : 5:4
Соотношение сторон в оригинале : 16:10
Частота кадров : 25,000 кадров/сек
Цветовое пространство : YUV
Субдискретизация насыщенности : 4:2:0
Битовая глубина : 8 бит
Тип развёртки : Прогрессивная
Метод сжатия : С потерями
Бит/(Пиксели*Кадры) : 0.237
Размер потока : 668 Мбайт (93%)
Библиотека кодирования : XviD 64

Аудио
Идентификатор : 1
Формат : MPEG Audio
Версия формата : Version 1
Профиль формата : Layer 3
Режим : Joint stereo
Расширение режима : MS Stereo
Идентификатор кодека : 55
Идентификатор кодека/Подсказка : MP3
Продолжительность : 51 м.
Вид битрейта : Постоянный
Битрейт : 128 Кбит/сек
Каналы : 2 канала
Частота : 48,0 КГц
Метод сжатия : С потерями
Размер потока : 47,6 Мбайт (7%)
Выравнивание : Разделение по промежуткам
Продолжительность промежутка : 40 мс. (1,00 видеокадр)
Время предзагрузки промежутка : 500 мс.
Библиотека кодирования : LAME3.98.2
picpicpicpicpic
Для увеличения картинки щелкните мышкой по превью

Этот торрент недоступен для скачивания без регистрации, однако доступен по публичной magnet-ссылке (источники с публичных трекеров). Перед использованием ссылки прочтите, пожалуйста Пользовательское соглашение, а также как можно дольше оставайтесь на раздаче! Для того, чтобы скачать сам торрент-файл (который видит больше источников), а также для того, чтобы поблагодарить релизера, вам необходимо зарегистрироваться. Если регистрироваться лень - вы можете также попробовать скачать релиз по нашим партнерским ссылкам ниже.

[underverse.su].t66101.torrent
Трекер: Зарегистрирован   [ 11.05.2016 19:41 ]  

Статус: проверено (by матроскин at 11.05.2016 21:00)
Поблагодарили: 1 человек
Тип торрента: публичный - доступные источники с открытых трекеров: 
Размер: 719 MB (занимает 0,16 DVDR, для записи нужно 1 болванка DVDR/RW)
 
 

Яндекс.Метрика powered by Sphinx


В Н И М А Н И Е
Сайт не распространяет и не хранит электронные версии произведений, а лишь бесплатно и без коммерческой выгоды (не требуя взамен платы,
SMS и т.д.) предоставляет доступ к создаваемому пользователями каталогу ссылок на торрент-файлы, которые содержат только списки хеш-сумм.
Убедительная просьба с жалобами обращаться напрямую к пользователю, разместившему торрент файл.

Вверх