Loading...
Error

Влад Листьев. Жизнь быстрее пули [2016 г., документальный, биография, HDTVRip]

Статистика раздачи
Размер:  716 MB   |    Зарегистрирован:  6 месяцев   |    Скачан:  4 раза

Полного источника не было: 6 месяцев

Сидов:  0  |  0 KB/s  ]   Личеров:  0  |  0 KB/s  ]

* - сиды/пиры с внешних источников

   
 
Автор Сообщение

ARI71 Пол:Муж

11-Май-2016 18:58

Влад Листьев. Жизнь быстрее пули


Год выпуска: 2016
Жанр: документальный, биография
Страна: Россия Красный квадрат
Режиссер: Руслан Трещёв
Сюжет фильма:
Его нет с нами чуть больше 20 лет, но имя Влад до сих пор не требует добавления фамилии. Это взгляд на успешного, легкого, жадно проживающего жизнь человека, который за восемь самых эффективных лет работы на телевидении так ярко и стремительно изменил свою жизнь и ворвался в нашу. Вместе с программой "Взгляд" он перевернул представление о телевидении и его влиянии. Мы узнали, что оно может быть другим. "Взгляд", которого не могло быть ни раньше, ни позже. Он был ровно в свое время. Как и сам Листьев, который был стопроцентно созвучен времени. То же можно сказать о первом ток-шоу "Тема" или формате телеинтервью в "Часе пик". Его внутренняя свобода оказалась созвучной переменам, происходившим в наших умах и сердцах...

Владисла́в Никола́евич Ли́стьев (10 мая 1956, Москва — 1 марта 1995, там же) — советский и российский телеведущий и журналист, первый генеральный директор ОРТ, предприниматель. Автор и первый ведущий таких передач, как «Взгляд», «Час пик», «Поле чудес». Был убит 1 марта 1995 года.

Качество видео: HDTVRip

Продолжительность: 00:49:59
Формат: AVI
Видео: XviD, 720x400, ~1800 kbps
Аудио: русский, (оригинал), AC3 2.0, ~192.00 kbps

Код:

Общее
Полное имя : D:\Vlad List'ev. Zhizn' bystree puli.HDTVRip.GeneralFilm.avi
Формат : AVI
Формат/Информация : Audio Video Interleave
Размер файла : 716 Мбайт
Продолжительность : 49 м.
Общий поток : 2001 Кбит/сек
Программа кодирования : VirtualDubMod 1.5.10.3 | www.virtualdub-fr.org || (build 2550/release)
Библиотека кодирования : VirtualDubMod build 2550/release

Видео
Идентификатор : 0
Формат : MPEG-4 Visual
Профиль формата : Advanced Simple@L5
Параметр BVOP формата : 1
Параметр QPel формата : Нет
Параметр GMC формата : Без точки перехода
Параметр матрицы формата : Выборочная
Идентификатор кодека : XVID
Идентификатор кодека/Подсказка : XviD
Продолжительность : 49 м.
Битрейт : 1800 Кбит/сек
Ширина : 720 пикселей
Высота : 400 пикселей
Соотношение сторон : 16:9
Частота кадров : 25,000 кадров/сек
Цветовое пространство : YUV
Субдискретизация насыщенности : 4:2:0
Битовая глубина : 8 бит
Тип развёртки : Прогрессивная
Метод сжатия : С потерями
Бит/(Пиксели*Кадры) : 0.250
Размер потока : 644 Мбайт (90%)
Библиотека кодирования : XviD 73

Аудио
Идентификатор : 1
Формат : AC-3
Формат/Информация : Audio Coding 3
Расширение режима : CM (complete main)
Параметр Endianness формата : Big
Идентификатор кодека : 2000
Продолжительность : 49 м.
Вид битрейта : Постоянный
Битрейт : 192 Кбит/сек
Каналы : 2 канала
Расположение каналов : Front: L R
Частота : 48,0 КГц
Метод сжатия : С потерями
Размер потока : 68,7 Мбайт (10%)
Выравнивание : Разделение по промежуткам
Продолжительность промежутка : 40 мс. (1,00 видеокадр)
Время предзагрузки промежутка : 500 мс.
Релиз группы:

picpicpicpicpic
Для увеличения картинки щелкните мышкой по превью

Этот торрент недоступен для скачивания без регистрации, однако доступен по публичной magnet-ссылке (источники с публичных трекеров). Перед использованием ссылки прочтите, пожалуйста Пользовательское соглашение, а также как можно дольше оставайтесь на раздаче! Для того, чтобы скачать сам торрент-файл (который видит больше источников), а также для того, чтобы поблагодарить релизера, вам необходимо зарегистрироваться. Если регистрироваться лень - вы можете также попробовать скачать релиз по нашим партнерским ссылкам ниже.

[underverse.su].t66098.torrent
Трекер: Зарегистрирован   [ 11.05.2016 18:58 ]  

Статус: проверено (by матроскин at 11.05.2016 21:01)
Поблагодарили: пока никто не поблагодарил...
Тип торрента: публичный - доступные источники с открытых трекеров: 
Размер: 716 MB (занимает 0,16 DVDR, для записи нужно 1 болванка DVDR/RW)
 
 

Яндекс.Метрика powered by Sphinx


В Н И М А Н И Е
Сайт не распространяет и не хранит электронные версии произведений, а лишь бесплатно и без коммерческой выгоды (не требуя взамен платы,
SMS и т.д.) предоставляет доступ к создаваемому пользователями каталогу ссылок на торрент-файлы, которые содержат только списки хеш-сумм.
Убедительная просьба с жалобами обращаться напрямую к пользователю, разместившему торрент файл.

Вверх