Loading...
Error

Нападение нацистов на США / Nazi Attack on America [2015 г., документальный, война, флот, история, расследование, SatRip] VO

Статистика раздачи
Размер:  629 MB   |    Зарегистрирован:  6 месяцев   |    Скачан:  4 раза

Полного источника не было: 2 дня 5 часов

Сидов:  0  |  0 KB/s  ]   Личеров:  0  |  0 KB/s  ]

* - сиды/пиры с внешних источников

   
 
Автор Сообщение

ARI71 Пол:Муж

11-Май-2016 18:37

Нападение нацистов на США / Nazi Attack on America


Год выпуска: 2015
Жанр: документальный, война, флот, история, расследование
Страна: США National Geographic
Режиссер: Кирк Вулфингер
Сюжет фильма:
Карл Дёниц считал, что Германия победила бы в Первой мировой, будь у неё больше подлодок, и с наступлением 30-х годов он начинает их постройку.
Январь, 1942 года. Через несколько недель после вступления Америки в войну, после нападения японцев на Перл-Харбор, у берегов США уже велись бои. Гитлеровские подлодки начали атаковать грузовые суда вдоль побережья Соединенных Штатов. Эти атаки имели сокрушительные последствия. Насколько близки были нацисты к победе в Атлантике?
Группа исследователей выясняет: кто затопил немецкую подводную лодку U-166.

Качество видео: SatRip

Продолжительность: 00:43:59
Формат: AVI
Видео: XviD, 720x400, ~1798 kbps
Аудио: русский, одноголосый (профессиональный), AC3 2.0, ~192.00 kbps

Код:

Общее
Полное имя : D:\Нападение.нацистов.на.США.2015.XviD.SATRip.alf62.avi
Формат : AVI
Формат/Информация : Audio Video Interleave
Размер файла : 629 Мбайт
Продолжительность : 43 м.
Общий поток : 2000 Кбит/сек
Программа кодирования : VirtualDubMod 1.5.10.3 | www.virtualdub-fr.org || (build 2550/release)
Библиотека кодирования : VirtualDubMod build 2550/release

Видео
Идентификатор : 0
Формат : MPEG-4 Visual
Профиль формата : Advanced Simple@L5
Параметр BVOP формата : 2
Параметр QPel формата : Нет
Параметр GMC формата : Без точки перехода
Параметр матрицы формата : Default (MPEG)
Идентификатор кодека : XVID
Идентификатор кодека/Подсказка : XviD
Продолжительность : 43 м.
Битрейт : 1798 Кбит/сек
Ширина : 720 пикселей
Высота : 400 пикселей
Соотношение сторон : 16:9
Частота кадров : 25,000 кадров/сек
Цветовое пространство : YUV
Субдискретизация насыщенности : 4:2:0
Битовая глубина : 8 бит
Тип развёртки : Прогрессивная
Метод сжатия : С потерями
Бит/(Пиксели*Кадры) : 0.250
Размер потока : 566 Мбайт (90%)
Библиотека кодирования : XviD 73

Аудио
Идентификатор : 1
Формат : AC-3
Формат/Информация : Audio Coding 3
Расширение режима : CM (complete main)
Параметр Endianness формата : Big
Идентификатор кодека : 2000
Продолжительность : 43 м.
Вид битрейта : Постоянный
Битрейт : 192 Кбит/сек
Каналы : 2 канала
Расположение каналов : Front: L R
Частота : 48,0 КГц
Метод сжатия : С потерями
Размер потока : 60,4 Мбайт (10%)
Выравнивание : Разделение по промежуткам
Продолжительность промежутка : 40 мс. (1,00 видеокадр)
Время предзагрузки промежутка : 500 мс.
Релиз группы:

picpicpicpicpic
Для увеличения картинки щелкните мышкой по превью

Этот торрент недоступен для скачивания без регистрации, однако доступен по публичной magnet-ссылке (источники с публичных трекеров). Перед использованием ссылки прочтите, пожалуйста Пользовательское соглашение, а также как можно дольше оставайтесь на раздаче! Для того, чтобы скачать сам торрент-файл (который видит больше источников), а также для того, чтобы поблагодарить релизера, вам необходимо зарегистрироваться. Если регистрироваться лень - вы можете также попробовать скачать релиз по нашим партнерским ссылкам ниже.

[underverse.su].t66096.torrent
Трекер: Зарегистрирован   [ 11.05.2016 18:37 ]  

Статус: проверено (by матроскин at 11.05.2016 21:01)
Поблагодарили: пока никто не поблагодарил...
Тип торрента: публичный - доступные источники с открытых трекеров: 
Размер: 629 MB (занимает 0,14 DVDR, для записи нужно 1 болванка DVDR/RW)
 
 
Похожие темы
Форум Тема Автор Торрент Отв. Посл. сооб.
Зарубежное кино [DVDRip, Low-Res HDRip, и т.д.] Нападение на 13-й Участок / Assault On Precinct 13 (Жан-Франсуа Рише) [2005 г., боевик, триллер, драма, криминал, BDRip] Dub + Original (Eng) + Sub (Rus, Eng) 90ytr90
0 | 0

0 | 474

5

16.09.2012 12:00

Зарубежное кино [DVDRip, Low-Res HDRip, и т.д.] Нападение на Уолл-стрит / Bailout: The Age of Greed (Уве Болл) [2013 г., триллер, драма, HDRip] VO [den904] RG NewCinema
0 | 0

0 | 894

17

07.07.2013 21:41

Зарубежное кино [DVDRip, Low-Res HDRip, и т.д.] Нападение на Уолл-стрит / Bailout: The Age of Greed (Уве Болл / Uwe Boll) [2013 г., триллер, драма, BDRip-AVC] VO (den904) + Original 90ytr90
0 | 0

0 | 900

5

27.07.2013 08:23

Зарубежное кино [DVDRip, Low-Res HDRip, и т.д.] Нападение на Уолл-стрит / Bailout: The Age of Greed (Уве Болл / Uwe Boll) [2013 г., триллер, драма, BDRip-AVC] VO (den904) 90ytr90
0 | 0

0 | 919

10

27.07.2013 08:28

Зарубежное кино [DVDRip, Low-Res HDRip, и т.д.] Нападение на Уолл-стрит / Bailout: The Age of Greed (Уве Болл) [2013 г., триллер, драма, HDRip] MVO 90ytr90
0 | 0

0 | 988

20

12.11.2013 17:54

Зарубежное кино [DVDRip, Low-Res HDRip, и т.д.] Нападение на Уолл-стрит / Bailout: The Age of Greed (Уве Болл) [2013 г., триллер, драма, BDRip] MVO + Original 90ytr90
2 | 0

0 | 1598

9

17.11.2013 21:25

Зарубежное кино [DVDRip, Low-Res HDRip, и т.д.] Нападение на 13-й Участок / Assault On Precinct 13 (Жан-Франсуа Рише) [2005 г., боевик, триллер, драма, криминал, HDRip] Dub 90ytr90
5 | 0

0 | 471

11

17.01.2015 09:56

Зарубежное кино [DVDRip, Low-Res HDRip, и т.д.] Нападение трёхголовой акулы / Угроза из глубины 2 / 3 Headed Shark Attack (Кристофер Рэй) [2015 г., ужасы, фантастика, боевик, HDRip] VO makkol
0 | 0

0 | 605

17

05.10.2015 10:55

Зарубежное кино [DVDRip, Low-Res HDRip, и т.д.] Нападение на Уолл-стрит / Bailout: The Age of Greed (Уве Болл / Uwe Boll) [2013 г., триллер, драма, HDRip] AVO (Яроцкий) 90ytr90
33 | 2

0 | 393

2

31.08.2016 15:13

Зарубежное кино [HDDVDRip / BDRip / WEB-DL / HDTV 1080/720р] Нападение на Уолл-стрит / Bailout: The Age of Greed (Уве Болл) [2013 г., триллер, драма, WEB-DLRip 720p] VO + Original Чертёнок
1 | 0

1 | 1054

13

21.07.2013 11:56


Яндекс.Метрика powered by Sphinx


В Н И М А Н И Е
Сайт не распространяет и не хранит электронные версии произведений, а лишь бесплатно и без коммерческой выгоды (не требуя взамен платы,
SMS и т.д.) предоставляет доступ к создаваемому пользователями каталогу ссылок на торрент-файлы, которые содержат только списки хеш-сумм.
Убедительная просьба с жалобами обращаться напрямую к пользователю, разместившему торрент файл.

Вверх