Loading...
Error

Партизаны / Partizani (Столе Янкович) [1974 г., боевик, драма, мелодрама, военный, DVDRip] VO

Статистика раздачи
Размер:  2,01 GB   |    Зарегистрирован:  6 месяцев   |    Скачан:  2 раза

Полного источника не было: 25 дней

Сидов:  0  |  0 KB/s  ]   Личеров:  0  |  0 KB/s  ]

* - сиды/пиры с внешних источников

   
 
Автор Сообщение

makkol Пол:Муж

11-Май-2016 16:31

Партизаны / Partizani


Год выпуска: 1974
Жанр: боевик, драма, мелодрама, военный
Производство: Югославия , США , Лихтенштейн [Avala Film, Film Forty-First - Avala Film Working Organization, Filmska Radna Zajednica (FRZ)]
Режиссер: Столе Янкович
В ролях: Род Тейлор, Велимир «Бата» Живоинович, Адам Уэст, Оливера Катарина, Петер Карстен, Драгомир Фелба, Брайони Фаррелл, Ксения Гратсос, Йован-Бурдуш Яницижевич, Питер Карстен, Оливера Вуко, Бранко Плеса, Лео Мартин, Маринко Себез, Янез Врховец, Гизела Вукович, Маринко Себеш, Драгомир Станоевич, Зоран Стоилькович, Сенка Велетанич
Сюжет фильма:
1941 год. Оккупированная немцами Югославия. Молодая еврейская девушка во время поисков родственников попадает в облаву, и, как еврейка, депортируется в лагерь. Во время конвоирования в лагерь её узнает молодой офицер, бывший друг детства. Это помогает ей выжить. Партизаны нападают на конвой и освобождают заключенных, но отношения между молодым австрийцем и девушкой не так понимает командир отряда партизан. Постепенно девушка и партизанский командир испытывают симпатию и между ними вспыхивает маленькая искра любви. Офицер, который спасал девушку, отчаянно её ищет и находит, после того как сам попадает в плен к партизанам. Но узнав, что между ними любовь, вынашивает план для мести и становится во главе карательной антипартизанской операции...

  • Мировая премьера: 18 июля 1974


Качество видео: DVDRip

Продолжительность: 01:53:31
Формат: AVI
Видео: XviD, 704x464 (3:2), 25.000 fps, 2329 kbps
Аудио: русский, любительский одногоголосый закадровый, AC3 2.0, 48 kHz, 192 kbps
Субтитры: сербские вшитые на немецкую речь

Код:

Формат                                   : AVI
Формат/Информация                        : Audio Video Interleave
Профиль формата                          : OpenDML
Размер файла                             : 2,01 Гбайт
Продолжительность                        : 1 ч. 53 м.
Общий поток                              : 2534 Кбит/сек
Программа кодирования                    : VirtualDubMod 1.5.10.3 | www.virtualdub-fr.org || (build 2550/release)
Библиотека кодирования                   : VirtualDubMod build 2550/release

Видео
Идентификатор                            : 0
Формат                                   : MPEG-4 Visual
Профиль формата                          : Advanced Simple@L5
Параметр BVOP формата                    : 1
Параметр QPel формата                    : Нет
Параметр GMC формата                     : Без точки перехода
Параметр матрицы формата                 : Default (MPEG)
Идентификатор кодека                     : XVID
Идентификатор кодека/Подсказка           : XviD
Продолжительность                        : 1 ч. 53 м.
Битрейт                                  : 2329 Кбит/сек
Ширина                                   : 704 пикселя
Высота                                   : 464 пикселя
Соотношение сторон                       : 3:2
Частота кадров                           : 25,000 кадров/сек
Цветовое пространство                    : YUV
Субдискретизация насыщенности            : 4:2:0
Битовая глубина                          : 8 бит
Тип развёртки                            : Прогрессивная
Метод сжатия                             : С потерями
Бит/(Пиксели*Кадры)                      : 0.285
Размер потока                            : 1,85 Гбайт (92%)
Библиотека кодирования                   : XviD 1.2.1 (UTC 2008-12-04)

Аудио
Идентификатор                            : 1
Формат                                   : AC-3
Формат/Информация                        : Audio Coding 3
Расширение режима                        : CM (complete main)
Параметр Endianness формата              : Big
Идентификатор кодека                     : 2000
Продолжительность                        : 1 ч. 53 м.
Вид битрейта                             : Постоянный
Битрейт                                  : 192 Кбит/сек
Каналы                                   : 2 канала
Расположение каналов                     : Front: L R
Частота                                  : 48,0 КГц
Метод сжатия                             : С потерями
Размер потока                            : 156 Мбайт (8%)
Выравнивание                             : Разделение по промежуткам
Продолжительность промежутка             : 40  мс. (1,00 видеокадр)
Время предзагрузки промежутка            : 500  мс.
Перевод: gordana75
Озвучивание: Dimo
Рип: Lem
Исходник от alinto
picpicpicpicpic
Для увеличения картинки щелкните мышкой по превью

Этот торрент недоступен для скачивания без регистрации, однако доступен по публичной magnet-ссылке (источники с публичных трекеров). Перед использованием ссылки прочтите, пожалуйста Пользовательское соглашение, а также как можно дольше оставайтесь на раздаче! Для того, чтобы скачать сам торрент-файл (который видит больше источников), а также для того, чтобы поблагодарить релизера, вам необходимо зарегистрироваться. Если регистрироваться лень - вы можете также попробовать скачать релиз по нашим партнерским ссылкам ниже.

[underverse.su].t66090.torrent
Трекер: Зарегистрирован   [ 11.05.2016 16:31 ]  

Статус: проверено (by makkol at 15.05.2016 13:00)
Поблагодарили: пока никто не поблагодарил...
Тип торрента: публичный - доступные источники с открытых трекеров: 
Размер: 2,01 GB (занимает 0,46 DVDR, для записи нужно 1 болванка DVDR/RW)
 
 

Яндекс.Метрика powered by Sphinx


В Н И М А Н И Е
Сайт не распространяет и не хранит электронные версии произведений, а лишь бесплатно и без коммерческой выгоды (не требуя взамен платы,
SMS и т.д.) предоставляет доступ к создаваемому пользователями каталогу ссылок на торрент-файлы, которые содержат только списки хеш-сумм.
Убедительная просьба с жалобами обращаться напрямую к пользователю, разместившему торрент файл.

Вверх