Loading...
Error

Модель Сталина. Фильм Третий " Испытание войной" [2016 г., документальный, HDTVRip]

Статистика раздачи
Размер:  772 MB   |    Зарегистрирован:  6 месяцев   |    Скачан:  4 раза

Полного источника не было: 18 часов

Сидов:  0  |  0 KB/s  ]   Личеров:  0  |  0 KB/s  ]

* - сиды/пиры с внешних источников

   
 
Автор Сообщение

матроскин Пол:Муж

11-Май-2016 14:29

Модель Сталина. Фильм Третий " Испытание войной"


Год выпуска: 2016
Жанр: документальный
Страна: Россия
Выпущено: Красное Тв
Сюжет фильма:
Это был самый великий период в истории человечества. Во главе страны стоял гениальный Сталин И.В. Фильм расскажет как наша страна прошла испытание войной.
Качество видео: HDTVRip

Продолжительность: 00:25:29
Формат: avi
Видео: DivX 4, 856x480, 3967 kbps
Аудио: русский, оригинал, MP3 2.0, 256 kbps

Код:

General
Complete name                    : C:\Users\Ohrana\Desktop\Модель Сталина 3 фильм.avi
Format                           : AVI
Format/Info                      : Audio Video Interleave
File size                        : 772 MiB
Duration                         : 25mn 29s
Overall bit rate                 : 4 236 Kbps
Writing application              : Lavf56.25.101

Video
ID                               : 0
Format                           : MPEG-4 Visual
Format profile                   : Simple@L1
Format settings, BVOP            : No
Format settings, QPel            : No
Format settings, GMC             : No warppoints
Format settings, Matrix          : Default (H.263)
Codec ID                         : DIVX
Codec ID/Info                    : Project Mayo
Codec ID/Hint                    : DivX 4
Duration                         : 25mn 29s
Bit rate                         : 3 968 Kbps
Width                            : 856 pixels
Height                           : 480 pixels
Display aspect ratio             : 16/9
Frame rate                       : 25.000 fps
Resolution                       : 24 bits
Colorimetry                      : 4:2:0
Scan type                        : Progressive
Bits/(Pixel*Frame)               : 0.386
Stream size                      : 723 MiB (94%)
Writing library                  : Lavc56.26.100

Audio
ID                               : 1
Format                           : MPEG Audio
Format version                   : Version 1
Format profile                   : Layer 3
Codec ID                         : 55
Codec ID/Hint                    : MP3
Duration                         : 25mn 29s
Bit rate mode                    : Constant
Bit rate                         : 256 Kbps
Channel(s)                       : 2 channels
Sampling rate                    : 44.1 KHz
Resolution                       : 16 bits
Stream size                      : 46.7 MiB (6%)
Alignment                        : Aligned on interleaves
Interleave, duration             : 26 ms (0.65 video frame)
Interleave, preload duration     : 78 ms
Writing library                  : LAME3.99.5

picpicpicpicpicpic
Для увеличения картинки щелкните мышкой по превью

Этот торрент недоступен для скачивания без регистрации, однако доступен по публичной magnet-ссылке (источники с публичных трекеров). Перед использованием ссылки прочтите, пожалуйста Пользовательское соглашение, а также как можно дольше оставайтесь на раздаче! Для того, чтобы скачать сам торрент-файл (который видит больше источников), а также для того, чтобы поблагодарить релизера, вам необходимо зарегистрироваться. Если регистрироваться лень - вы можете также попробовать скачать релиз по нашим партнерским ссылкам ниже.

[underverse.su].t66078.torrent
Трекер: Зарегистрирован   [ 11.05.2016 14:29 ]  

Статус: проверено (by матроскин at 11.05.2016 14:29)
Поблагодарили: пока никто не поблагодарил...
Тип торрента: публичный - доступные источники с открытых трекеров: 
Размер: 772 MB (занимает 0,17 DVDR, для записи нужно 1 болванка DVDR/RW)
 
 
Похожие темы
Форум Тема Автор Торрент Отв. Посл. сооб.
Информационно-аналитические передачи Модель Сталина. Фильм Первый " Индустриализация" [2016 г., документальный, HDTVRip] матроскин
0 | 0

1 | 762

3

11.05.2016 13:34

Информационно-аналитические передачи Модель Сталина. Фильм Второй "Слагаемые успеха" [2016 г., документальный, HDTVRip] матроскин
1 | 0

1 | 727

3

11.05.2016 13:58

Информационно-аналитические передачи Модель Сталина. Фильм Четвертый "Новые возможности" [2016 г., документальный, HDTVRip] матроскин
2 | 0

2 | 745

3

12.05.2016 23:09

матроскин Пол:Муж

11-Май-2016 14:34



добавлено спустя 3 минуты 15 секунд:

Гитлер откровенно заявлял, что советское мировоззрение - есть угроза Европе, и если ему удастся идейно кастрировать русских, уничтожив большевизм, то собственно население СССР никакой угрозы для запада, от имени которого Гитлер имел наглость вещать, русские представлять не будут. Их можно будет легко обратить в рабов и поддерживать в нужной степени отсталости. Талантливых рабов он предлагал выявлять давать настоящее образование и онемечивать, чтобы искоренить даже гипотетическую возможность появления лидера восстания. Что касается остального народа, то их никто не собирался заставлять работать из-под палки. Фюрер был настоящим свободолюбивцем и говорил, что тот, кто желает ничего не делать - пускай делает это самое "ничего" и подыхает. А для прочих будет альтернатива: магазины, полные первосортных немецких товаров, которые всякий раб может купить столько, сколько захочет, если есть деньги. А деньги будут только у тех, кто признаёт орднунг и много-много арбайтен в интересах Великого Рейха.

Яндекс.Метрика powered by Sphinx


В Н И М А Н И Е
Сайт не распространяет и не хранит электронные версии произведений, а лишь бесплатно и без коммерческой выгоды (не требуя взамен платы,
SMS и т.д.) предоставляет доступ к создаваемому пользователями каталогу ссылок на торрент-файлы, которые содержат только списки хеш-сумм.
Убедительная просьба с жалобами обращаться напрямую к пользователю, разместившему торрент файл.

Вверх