Loading...
Error

Тайны невидимого мира / Mysteries of the Unseen World [2013 г., документальный, познавательный, HDRip] VO

Статистика раздачи
Размер:  701 MB   |    Зарегистрирован:  6 месяцев   |    Скачан:  6 раз

Полного источника не было: 8 часов

Сидов:  0  |  0 KB/s  ]   Личеров:  0  |  0 KB/s  ]

* - сиды/пиры с внешних источников

   
 
Автор Сообщение

ARI71 Пол:Муж

10-Май-2016 12:19

Тайны невидимого мира / Mysteries of the Unseen World


Год выпуска: 2013
Жанр: документальный, познавательный
Страна: США National Geographic, Lockheed Martin, National Science Foundation, FEI
Режиссер: Луи Шварцберг
В ролях: Форест Уитакер
Сюжет фильма:
Этот фильм переносит зрителей в места нашей планеты, где они никогда раньше не были, чтобы увидеть вещи, которые находятся за пределами нашего нормального зрения, но буквально прямо перед глазами. "Тайны невидимого мира" показывает явления, которые нельзя увидеть невооруженным глазом, приглашая зрителей в земные миры, которые спрятаны от нас другими масштабами измерения времени и пространства. Зрители увидят события, которые разворачиваются слишком медленно для человеческого восприятия.


Качество видео: HDRip

Продолжительность: 00:39:16
Формат: AVI
Видео: DivX 5, 720x400, ~2293 kbps
Аудио: русский, одноголосый закадровый (любительский), AC3 2.0, ~192.00 kbps

Код:

Общее
Полное имя : D:\Tajny.nevidimyh.mirov.2013.HDRip.[Один 777].avi
Формат : AVI
Формат/Информация : Audio Video Interleave
Размер файла : 701 Мбайт
Продолжительность : 39 м.
Общий поток : 2494 Кбит/сек
Программа кодирования : VirtualDubMod 1.5.10.3 | www.virtualdub-fr.org || (build 2550/release)
Библиотека кодирования : VirtualDubMod build 2550/release

Видео
Идентификатор : 0
Формат : MPEG-4 Visual
Профиль формата : Advanced Simple@L5
Параметр BVOP формата : 1
Параметр QPel формата : Нет
Параметр GMC формата : Без точки перехода
Параметр матрицы формата : Default (MPEG)
Идентификатор кодека : DX50
Идентификатор кодека/Подсказка : DivX 5
Продолжительность : 39 м.
Битрейт : 2293 Кбит/сек
Ширина : 720 пикселей
Высота : 400 пикселей
Соотношение сторон : 16:9
Частота кадров : 25,000 кадров/сек
Цветовое пространство : YUV
Субдискретизация насыщенности : 4:2:0
Битовая глубина : 8 бит
Тип развёртки : Прогрессивная
Метод сжатия : С потерями
Бит/(Пиксели*Кадры) : 0.318
Размер потока : 644 Мбайт (92%)
Библиотека кодирования : XviD 73

Аудио
Идентификатор : 1
Формат : AC-3
Формат/Информация : Audio Coding 3
Расширение режима : CM (complete main)
Параметр Endianness формата : Big
Идентификатор кодека : 2000
Продолжительность : 39 м.
Вид битрейта : Постоянный
Битрейт : 192 Кбит/сек
Каналы : 2 канала
Расположение каналов : Front: L R
Частота : 48,0 КГц
Метод сжатия : С потерями
Размер потока : 53,9 Мбайт (8%)
Выравнивание : Разделение по промежуткам
Продолжительность промежутка : 40 мс. (1,00 видеокадр)
Время предзагрузки промежутка : 500 мс.
picpicpicpicpic
Для увеличения картинки щелкните мышкой по превью

Этот торрент недоступен для скачивания без регистрации, однако доступен по публичной magnet-ссылке (источники с публичных трекеров). Перед использованием ссылки прочтите, пожалуйста Пользовательское соглашение, а также как можно дольше оставайтесь на раздаче! Для того, чтобы скачать сам торрент-файл (который видит больше источников), а также для того, чтобы поблагодарить релизера, вам необходимо зарегистрироваться. Если регистрироваться лень - вы можете также попробовать скачать релиз по нашим партнерским ссылкам ниже.

[underverse.su].t66030.torrent
Трекер: Зарегистрирован   [ 10.05.2016 12:19 ]  

Статус: проверено (by 90ytr90 at 10.05.2016 14:46)
Поблагодарили: 2 человека
Тип торрента: публичный - доступные источники с открытых трекеров: 
Размер: 701 MB (занимает 0,16 DVDR, для записи нужно 1 болванка DVDR/RW)
 
 

Яндекс.Метрика powered by Sphinx


В Н И М А Н И Е
Сайт не распространяет и не хранит электронные версии произведений, а лишь бесплатно и без коммерческой выгоды (не требуя взамен платы,
SMS и т.д.) предоставляет доступ к создаваемому пользователями каталогу ссылок на торрент-файлы, которые содержат только списки хеш-сумм.
Убедительная просьба с жалобами обращаться напрямую к пользователю, разместившему торрент файл.

Вверх